<?xml version="1.0" standalone="no"?>
<!DOCTYPE svg PUBLIC "-//W3C//DTD SVG 1.1//EN" "http://www.w3.org/Graphics/SVG/1.1/DTD/svg11.dtd" >
<svg xmlns="http://www.w3.org/2000/svg">
<metadata></metadata>
<defs>
<font id="folksregular" horiz-adv-x="0" >
<font-face units-per-em="1000" ascent="800" descent="-200" />
<missing-glyph horiz-adv-x="255" />
<glyph horiz-adv-x="1000" />
<glyph horiz-adv-x="1000" />
<glyph horiz-adv-x="333" />
<glyph horiz-adv-x="317" d="M-5 656q0 -21 19 -37t45 -26.5t53.5 -15.5t44.5 -5q14 0 41 5.5t53.5 15.5t46 24.5t19.5 32.5q0 16 -9 31.5t-26 15.5q-4 0 -14.5 -7t-27 -15t-37.5 -15t-45 -7q-25 0 -46.5 7t-38.5 15.5t-28 15.5t-15 7q-15 0 -25 -14t-10 -28z" />
<glyph />
<glyph horiz-adv-x="242" d="M39 657q0 -17 6.5 -31t18 -24.5t26 -16.5t30.5 -6q33 0 58 22t25 56q0 17 -7 31t-18 24.5t-26 16.5t-31 6q-33 0 -57.5 -22t-24.5 -56zM84 657q0 15 11 25.5t26 10.5q14 0 25 -11t11 -26q0 -14 -10.5 -24.5t-24.5 -10.5q-16 0 -27 9.5t-11 26.5z" />
<glyph unicode="&#xa;" horiz-adv-x="609" d="M50 214q6 -8 13.5 -16t15.5 -14l65 63q37 -29 84 -29t84 28l62 -63q8 7 16 14.5t15 15.5l-63 63q28 39 28 85t-27 84l63 60q-15 20 -31 32l-62 -63q-37 28 -84 28t-86 -28l-64 62q-8 -8 -15 -15.5t-13 -16.5l62 -60q-28 -37 -28 -83q0 -47 29 -84zM131 360q0 20 7.5 37.5 t21 30.5t30.5 20.5t37 7.5t37.5 -7.5t31 -20.5t21 -30.5t7.5 -37.5t-7.5 -37.5t-21 -30.5t-31 -20.5t-37.5 -7.5t-37 7.5t-30.5 20.5t-21 30.5t-7.5 37.5z" />
<glyph />
<glyph horiz-adv-x="305" d="M155 662q-9 3 -25 10.5t-33 14.5t-32.5 12.5t-24.5 5.5q-17 0 -28.5 -11.5t-11.5 -28.5q0 -28 25 -38l107 -42q5 -2 11 -4t12 -2t12.5 2.5t12.5 4.5l104 41q11 5 18 15t7 22q0 17 -12 29t-29 12q-9 0 -24.5 -5.5t-32.5 -12.5t-32 -14t-24 -11z" />
<glyph unicode="&#xd;" horiz-adv-x="214" d="M65 -1h84v501q0 16 -11.5 29t-28.5 13q-18 0 -31 -11.5t-13 -30.5v-501z" />
<glyph horiz-adv-x="206" d="M229 741q-22 0 -29 -20l-247 -689q-3 -8 -3 -17q0 -13 7 -22.5t21 -9.5q10 0 18.5 6.5t11.5 15.5l248 688q2 3 2 6v7q0 14 -7.5 24.5t-21.5 10.5z" />
<glyph horiz-adv-x="545" d="M226 254l-125 -125q-10 -10 -10 -24t10 -23.5t24 -9.5t23 9l125 124l121 -121q10 -10 25 -10q14 0 24 9.5t10 23.5t-10 24l-122 122l122 122q10 10 10 24t-9.5 24t-23.5 10t-25 -11l-122 -121l-122 122q-10 10 -25 10q-14 0 -23.5 -9t-9.5 -23t10 -24z" />
<glyph horiz-adv-x="500" />
<glyph />
<glyph />
<glyph />
<glyph />
<glyph unicode=" "  horiz-adv-x="255" />
<glyph unicode="&#x09;" horiz-adv-x="255" />
<glyph unicode="&#xa0;" horiz-adv-x="255" />
<glyph unicode="!" horiz-adv-x="210" d="M52 38q0 -22 16 -36.5t37 -14.5q22 0 37.5 15t15.5 38t-16 37.5t-38 14.5q-23 0 -37.5 -16t-14.5 -38zM64 147l83 -1v547q0 17 -13 30t-30 13t-28.5 -12.5t-11.5 -29.5v-547z" />
<glyph unicode="&#x22;" horiz-adv-x="287" d="M50 495h63l20 225h-63zM154 495h63l20 225h-63z" />
<glyph unicode="#" horiz-adv-x="611" d="M181 269h-101q-11 0 -21 -8t-10 -20q0 -8 6.5 -14.5t14.5 -6.5h101q-1 -6 -4.5 -23t-8 -39t-9.5 -47t-9 -46t-7 -36t-3 -18q0 -8 5.5 -13.5t13.5 -5.5q10 0 17 6.5t9 15.5l43 208h115q-2 -10 -9 -42.5t-14.5 -68.5t-13.5 -66t-6 -36q0 -8 6 -12.5t13 -4.5q10 0 18 6 t10 16l42 205h104q12 0 21.5 8.5t9.5 21.5q0 8 -6.5 14t-14.5 6h-103l38 183h103q11 0 20.5 7.5t9.5 19.5q0 8 -6 14t-14 6h-103l45 204h-48l-44 -204h-114l45 204h-48l-45 -204h-98q-11 0 -20.5 -7t-9.5 -19q0 -9 5.5 -15t15.5 -6h97zM228 269l39 183h114l-38 -183h-115z " />
<glyph unicode="$" horiz-adv-x="488" d="M220 74h-11q-17 0 -35.5 5t-37 13.5t-34.5 19.5t-28 22l-51 -62q11 -21 35.5 -36.5t53 -25t58 -14t50.5 -4.5v-65l39 -1v67q43 3 82 23t68 51t46 71.5t17 84.5q0 47 -19 80.5t-49.5 57.5t-68.5 40t-76 29v222q15 -3 34.5 -10.5t37.5 -15.5t33 -14.5t23 -6.5q16 0 27 12.5 t11 28.5q0 21 -20 36.5t-47 25.5t-55.5 15t-44.5 5q0 7 1 19t0.5 23.5t-5 20t-16.5 8.5q-11 0 -15 -9t-4.5 -21.5t0.5 -24.5t1 -18q-36 0 -69 -16.5t-58.5 -42.5t-40.5 -59.5t-15 -68.5q0 -60 33.5 -100.5t86.5 -62.5q16 -7 31.5 -12.5t31.5 -11.5v-278zM220 649l1 -206 q-18 7 -34 16.5t-29 22.5t-20.5 29t-7.5 37q0 18 7.5 35t20 31t28.5 23t34 12zM259 76v264q22 -7 43.5 -17.5t39 -25t28 -34.5t10.5 -46q0 -24 -10 -48t-26.5 -43.5t-38.5 -33t-46 -16.5z" />
<glyph unicode="%" horiz-adv-x="742" d="M39 562q0 -33 10.5 -64t30.5 -55t48.5 -38t64.5 -14q37 0 66 14.5t49.5 39t31 56.5t10.5 67q0 34 -10.5 64t-30.5 53t-48.5 36.5t-64.5 13.5q-37 0 -66 -14t-49.5 -37.5t-31 -55t-10.5 -66.5zM182 -4l63 -27q5 12 20.5 49t38 89.5t49 115.5t53.5 128t52 126t44.5 109.5 t31.5 79.5t12 35q0 14 -10.5 25t-25.5 11q-10 0 -18.5 -5.5t-12.5 -15.5zM390 153q0 -35 10.5 -66t30.5 -54t49 -36.5t66 -13.5q36 0 65 13.5t49.5 36.5t31.5 54t11 66q0 34 -10.5 65t-30 54.5t-48 37t-65.5 13.5q-36 0 -65.5 -13.5t-50.5 -36.5t-32 -54t-11 -66zM106 563 q0 20 5 41t16 37.5t27.5 27t40.5 10.5q23 0 39 -10t26.5 -26t15.5 -36t5 -40t-5 -41t-15.5 -39t-27 -29.5t-39.5 -11.5t-39.5 11t-27 28.5t-16 38t-5.5 39.5zM457 153q0 21 5 42t15.5 37t28 26t41.5 10q25 0 41.5 -10t26.5 -26t14.5 -36.5t4.5 -41.5t-4.5 -42t-14.5 -37.5 t-26.5 -26.5t-41.5 -10q-24 0 -41 10t-28 26.5t-16 37t-5 41.5z" />
<glyph unicode="&#x26;" horiz-adv-x="682" d="M209 443q-33 -17 -63.5 -42t-53 -56.5t-36 -68t-13.5 -75.5q0 -49 18.5 -89t50 -68.5t73 -44.5t88.5 -16q67 0 127.5 32.5t99.5 86.5l112 -133l62 53l-121 145q7 10 23 30.5t32.5 44t28.5 46.5t12 38q0 17 -10 29t-27 10h-5q-12 0 -22 -9t-18.5 -21t-15.5 -25.5 t-12 -22.5q-9 -15 -19 -29.5t-20 -28.5l-164 196q24 15 47.5 32t42 38t30 46.5t11.5 57.5q0 35 -14.5 61t-38 43t-54 25.5t-61.5 8.5q-32 0 -62 -9.5t-53.5 -27.5t-38 -44.5t-14.5 -61.5q0 -21 7 -42t18 -40.5t25 -36.5t28 -32zM285 482q-8 12 -20 25t-22.5 27.5t-18 29.5 t-7.5 32t7.5 29.5t20 20.5t27.5 12t30 4q30 0 55 -19.5t25 -51.5q0 -20 -9.5 -36.5t-24 -29.5t-31.5 -23.5t-32 -19.5zM259 384l186 -220q-13 -21 -32 -39t-41 -31.5t-46.5 -21.5t-48.5 -8q-31 0 -57.5 11.5t-45.5 31.5t-30 47t-11 57q0 29 10.5 55.5t27.5 49t40 40t48 28.5 z" />
<glyph unicode="'" horiz-adv-x="183" d="M50 495h63l20 225h-63z" />
<glyph unicode="(" horiz-adv-x="204" d="M51 370q0 -15 2.5 -52t7.5 -84t12.5 -97.5t18 -92t23.5 -68.5t30 -27q12 0 25 8.5t13 22.5q0 23 -7.5 46t-12.5 46q-17 73 -27 148t-10 150q0 40 5 94t13.5 109.5t20 108t24.5 90.5l-65 12q-28 -103 -50.5 -205t-22.5 -209z" />
<glyph unicode=")" horiz-adv-x="204" d="M21 -15q0 -17 11.5 -26.5t26.5 -9.5q17 0 30.5 27.5t24 70.5t18 94.5t12.5 99.5t7.5 85.5t2.5 53.5q0 106 -25 207t-55 202l-62 -16q10 -19 18.5 -49.5t16 -68t13 -78.5t10 -80t6.5 -72.5t2 -55.5q0 -75 -10 -149.5t-27 -147.5q-5 -20 -12.5 -43.5t-7.5 -43.5z" />
<glyph unicode="*" horiz-adv-x="386" d="M171 594l-81 64q-11 7 -19 7q-15 0 -26.5 -12t-11.5 -26q0 -22 19 -30l96 -41l-92 -39q-22 -10 -22 -33q0 -14 11 -25t25 -11q9 0 23 8.5t28.5 19.5t27.5 22t20 17l-11 -121h70l-11 121q7 -5 20 -16.5t27.5 -22.5t28.5 -19.5t23 -8.5q15 0 25.5 11t10.5 25q0 23 -22 33 l-92 39l96 41q9 4 14 12t5 17q0 15 -11 27t-27 12q-9 0 -19 -7l-81 -64q3 26 8 55t5 55q0 14 -10.5 23t-24.5 9t-24.5 -9t-10.5 -23q0 -26 5 -55t8 -55z" />
<glyph unicode="+" horiz-adv-x="545" d="M46 377v-67h193v-176q0 -14 10 -23.5t24 -9.5t24 9t10 23v176h171q14 0 24.5 10t10.5 24t-10 24t-24 10h-172v173q0 14 -9.5 24t-23.5 10q-15 0 -24.5 -10.5t-9.5 -24.5v-172h-194z" />
<glyph unicode="," horiz-adv-x="186" d="M92 107l-86 -180q-4 -8 -4 -19q0 -17 12.5 -30t29.5 -13q12 0 22.5 6.5t15.5 17.5l88 180z" />
<glyph unicode="-" horiz-adv-x="360" d="M44 328l1 -78h238q16 0 27 11.5t11 27.5t-11 27.5t-27 11.5h-239z" />
<glyph unicode="." horiz-adv-x="180" d="M37 39q0 -21 16 -36.5t37 -15.5q22 0 37.5 15.5t15.5 36.5q0 23 -16 38t-38 15t-37 -16t-15 -37z" />
<glyph unicode="/" horiz-adv-x="407" d="M11 -7l63 -27l305 770q3 7 3 17q0 14 -9 24t-23 10q-11 0 -20.5 -8t-14.5 -19z" />
<glyph unicode="0" horiz-adv-x="545" d="M37 360q0 -36 4.5 -77.5t15.5 -82.5t28.5 -79t43.5 -66.5t61.5 -46t81.5 -17.5q47 0 83 17.5t62 47t43.5 68t28 80.5t15 84t4.5 79q0 36 -5 77t-16 81.5t-29 77t-44 65t-61.5 45t-80.5 16.5q-46 0 -81.5 -17.5t-61.5 -46t-43.5 -66.5t-28.5 -79t-15.5 -82.5t-4.5 -77.5z M129 360q0 22 2 52t7.5 62.5t15.5 64t26 57t38.5 41t53.5 15.5t54 -15.5t39 -41t26 -57t15.5 -64t7.5 -62.5t2 -52q0 -23 -2 -53.5t-7.5 -63t-15.5 -64t-26.5 -56.5t-40 -40.5t-55.5 -15.5q-46 0 -73.5 33.5t-42.5 80.5t-19.5 96.5t-4.5 82.5z" />
<glyph unicode="1" horiz-adv-x="545" d="M150 720q-17 0 -28.5 -11.5t-11.5 -28.5t11.5 -27.5t27.5 -10.5h92v-643l87 1v675q0 17 -11.5 31t-29.5 14h-137z" />
<glyph unicode="2" horiz-adv-x="544" d="M183 79q33 44 65 87.5t64 88.5q21 29 48 63t51 71t40.5 76.5t16.5 79.5t-16 74t-42.5 59t-62 38.5t-74.5 13.5q-48 0 -87.5 -17.5t-68.5 -47.5t-45 -70.5t-16 -86.5q0 -22 8.5 -38t34.5 -16q23 0 34 21q4 7 4 15t2 16q4 29 12.5 54.5t24 45t38.5 31t56 11.5 q22 0 41.5 -7.5t34 -21.5t23 -33t8.5 -41q0 -29 -17.5 -66.5t-42 -75t-50 -71.5t-41.5 -56l-145 -198q-6 -8 -11.5 -18.5t-5.5 -20.5q0 -20 17.5 -29.5t34.5 -9.5h364v79h-297z" />
<glyph unicode="3" horiz-adv-x="544" d="M369 387q39 27 59 69t20 90q0 38 -13.5 71.5t-37.5 58.5t-57 39.5t-72 14.5q-65 0 -111 -34.5t-65 -96.5q0 1 1 0.5l1 -0.5q5 -2 9 -3.5t9 -3.5q3 -2 11.5 -6t17.5 -8t17 -7.5t10 -3.5h1q8 36 32 59.5t63 23.5q21 0 39 -9.5t30.5 -24.5t19.5 -34.5t7 -39.5 q0 -41 -10 -64.5t-25.5 -36t-33 -17.5t-33 -9.5t-25.5 -11.5t-10 -24q0 -11 5 -21q8 -15 22 -18t29 -5q55 -8 87 -39.5t32 -89.5q0 -30 -10.5 -54.5t-28.5 -42t-43 -27.5t-54 -10q-32 0 -52.5 9.5t-34.5 24.5t-22.5 31.5t-16.5 31.5t-17 24.5t-23 9.5q-17 0 -29 -13.5 t-12 -30.5q0 -11 3 -21.5t8 -21.5q12 -29 32 -52.5t45.5 -40t55 -25t61.5 -8.5q47 0 88.5 16.5t73 46.5t49.5 70.5t18 88.5q0 58 -33 106t-87 69z" />
<glyph unicode="4" horiz-adv-x="544" d="M361 730q-20 0 -37.5 -10.5t-28.5 -27.5l-252 -426q-5 -8 -11 -19t-6 -22q0 -15 5.5 -22.5t14.5 -11.5t20 -4.5t22 -0.5h263v-188h82v189h24t27 3t21.5 11t8.5 24t-8.5 24t-20.5 11.5t-26 3.5h-24v383q0 34 -19 58.5t-55 24.5zM132 264l218 387v-387h-218z" />
<glyph unicode="5" horiz-adv-x="545" d="M207 720q-29 0 -39 -8.5t-15 -37.5l-38 -257q-1 -7 -2 -13.5t-1 -12.5q0 -14 11 -24t24 -10q10 0 22 5t26 10.5t29.5 10.5t32.5 5q31 0 55.5 -11.5t41 -31.5t25 -46.5t8.5 -56.5t-9 -60t-26 -54.5t-42.5 -39.5t-59.5 -15q-30 0 -55.5 11.5t-46 25.5t-36 25.5t-24.5 11.5 q-17 0 -30 -12t-13 -29q0 -16 12.5 -31t30 -28t36.5 -23t32 -15q49 -19 96 -19q53 0 95.5 21t72 56.5t45.5 82t16 96.5q0 43 -13.5 82.5t-39 70t-62 48.5t-81.5 18q-43 0 -82 -17l30 194h233l10 78h-269z" />
<glyph unicode="6" horiz-adv-x="544" d="M193 436q25 46 47 78.5t45.5 60.5t50.5 56t63 64q-4 2 -14 7.5t-20.5 12.5l-19.5 13t-11 9q-21 -22 -45.5 -42t-44.5 -43q-37 -42 -71 -89t-59.5 -98.5t-41 -106.5t-15.5 -113q0 -48 13.5 -94t40 -82.5t66 -58.5t92.5 -22q51 0 91.5 20t68.5 54t43 78t15 92 q0 45 -13 86.5t-38 73.5t-62 51t-86 19q-51 0 -95 -26zM270 70q-34 0 -57.5 15t-38 38.5t-21 52.5t-6.5 58t6.5 57t21 50t38 35.5t57.5 13.5t58 -14.5t39.5 -38t22.5 -52.5t7 -59t-7.5 -58t-23 -49.5t-39.5 -35t-57 -13.5z" />
<glyph unicode="7" horiz-adv-x="545" d="M66 720v-80h325l-262 -592q-3 -8 -3 -16q0 -17 12.5 -29.5t29.5 -12.5q13 0 24 7t16 19l281 645q4 8 4 19q0 19 -13 29t-31 10z" />
<glyph unicode="8" horiz-adv-x="545" d="M180 404q-30 -9 -53.5 -27.5t-39 -44t-23.5 -55t-8 -59.5q0 -48 15.5 -89.5t43.5 -73t68 -49.5t89 -18t89 18t68.5 49.5t44 73t15.5 89.5q0 30 -8 60t-24 55t-39 43.5t-54 27.5q40 23 66 65.5t26 88.5q0 39 -14.5 71.5t-39 55.5t-58 36t-71.5 13t-71.5 -13t-58.5 -36 t-39.5 -55.5t-14.5 -71.5q0 -50 25.5 -89t65.5 -65zM273 441q-23 0 -42 9.5t-32 25t-20 35.5t-7 42t7 41.5t20.5 34t31.5 23t41 8.5q45 0 73.5 -31t28.5 -75q0 -22 -7 -42.5t-20.5 -36t-32 -25t-41.5 -9.5zM148 220q0 28 8 54t23.5 45.5t39 31t53.5 11.5q29 0 52.5 -11 t40 -30t25 -44t8.5 -53t-8 -55.5t-24 -49.5t-39.5 -36t-54.5 -14q-30 0 -53.5 13.5t-39 35t-23.5 48.5t-8 54z" />
<glyph unicode="9" horiz-adv-x="544" d="M351 282q-23 -48 -54.5 -91t-67.5 -81l-10.5 -10.5t-21 -21.5t-20.5 -22t-9 -13l56 -53q2 0 10.5 7.5t18 17t17 17.5t9.5 10q41 43 78.5 93t66.5 104.5t46 113.5t17 120q0 48 -13.5 94.5t-40 82.5t-66.5 58.5t-93 22.5t-93.5 -21t-68 -55.5t-41.5 -80t-14 -94.5 q0 -44 13.5 -84.5t39 -71.5t62 -50t83.5 -19q52 0 96 27zM274 328q-34 0 -58 14.5t-39.5 37.5t-22.5 52.5t-7 59.5t7.5 58t23 50t39.5 35.5t57 13.5q32 0 55.5 -14t38.5 -36.5t22.5 -50.5t7.5 -56q0 -30 -6 -59.5t-20.5 -52.5t-38.5 -37.5t-59 -14.5z" />
<glyph unicode=":" horiz-adv-x="199" d="M52 39q0 -21 16 -36.5t37 -15.5q22 0 37.5 15.5t15.5 36.5q0 23 -16 38t-38 15t-37 -16t-15 -37zM52 378q0 -22 15.5 -37.5t37.5 -15.5t38 15.5t16 37.5q0 23 -16 37.5t-38 14.5t-37.5 -15t-15.5 -37z" />
<glyph unicode=";" horiz-adv-x="214" d="M68 381q0 -23 15.5 -37.5t38.5 -14.5q22 0 37 16t15 37q0 22 -15.5 36.5t-36.5 14.5q-23 0 -38.5 -14.5t-15.5 -37.5zM102 98l-82 -171q-4 -8 -4 -19q0 -17 12.5 -30t29.5 -13q12 0 22.5 6.5t15.5 17.5l84 171z" />
<glyph unicode="&#x3c;" horiz-adv-x="521" d="M50 360l421 -238v71l-303 167l303 167v71z" />
<glyph unicode="=" horiz-adv-x="544" d="M64 439q-14 0 -24.5 -9.5t-10.5 -23.5t10 -24t24 -10h426v67h-425zM54 313l-1 -66h426q14 0 24.5 9.5t10.5 23.5t-10.5 23.5t-24.5 9.5h-425z" />
<glyph unicode="&#x3e;" horiz-adv-x="521" d="M50 122l421 238l-421 238v-71l303 -167l-303 -167v-71z" />
<glyph unicode="?" horiz-adv-x="465" d="M163 36q0 -21 16 -35.5t36 -14.5q22 0 37.5 14.5t15.5 36.5q0 23 -15.5 37.5t-37.5 14.5q-23 0 -37.5 -15.5t-14.5 -37.5zM256 354q38 6 70 22.5t55 41.5t35.5 58.5t12.5 72.5q0 45 -17.5 80t-46.5 59t-68 36t-81 12q-45 0 -87 -16t-71 -51q-14 -17 -25 -37.5t-11 -43.5 q0 -19 10.5 -33.5t30.5 -14.5q23 0 31 15t14 32v2q16 36 45.5 50.5t67.5 14.5q48 0 81 -28.5t33 -78.5q0 -37 -12 -58.5t-30 -33.5t-39 -17.5t-39 -10.5t-30 -12t-12 -22v-247l83 -1v209z" />
<glyph unicode="@" horiz-adv-x="770" d="M450 73q-2 -19 4.5 -35t18.5 -27t28.5 -17.5t34.5 -6.5q48 0 82.5 29.5t57 72.5t33 92t10.5 87q0 67 -22 124t-62.5 98.5t-96.5 65t-123 23.5q-77 0 -143 -30.5t-114 -82t-75.5 -119.5t-27.5 -143q0 -71 28 -138.5t76 -120t112.5 -85t137.5 -32.5l-1 40q-17 0 -40 5.5 t-40 11.5q-161 56 -205 221q-12 46 -12 95q0 66 22 126t62.5 106t97 73.5t125.5 27.5q58 0 104.5 -20.5t79.5 -56t50.5 -84t17.5 -104.5q0 -21 -3 -47.5t-9.5 -52.5t-17 -50t-24.5 -40t-33 -33.5t-41 -17.5q-14 0 -23 6t-14 15.5t-7 21t-2 22.5q0 29 5 59.5t10 59.5 q9 54 19 108.5t20 108.5h-48l-10 -59q-8 29 -34 46.5t-55 17.5q-46 0 -80 -28t-56 -69.5t-33 -88t-11 -83.5q0 -29 6.5 -59t21 -54.5t38.5 -40t59 -15.5q16 0 32.5 6t30 16.5t24 24.5t15.5 30zM349 35q-23 0 -36.5 10.5t-21 27t-10 36t-2.5 37.5q0 27 6 68.5t20.5 80.5 t38.5 67.5t60 28.5q17 0 30 -7.5t21.5 -20t13 -27.5t4.5 -30q0 -16 -2.5 -42.5t-9 -56.5t-16 -60.5t-23 -55.5t-32 -40.5t-41.5 -15.5z" />
<glyph unicode="A" horiz-adv-x="618" d="M306 728q-25 0 -39 -16.5t-22 -37.5l-230 -619q-5 -13 -5 -24q0 -17 11.5 -29t29.5 -12q14 0 25 8.5t16 21.5l51 135h332l63 -165l86 25l-251 659q-10 26 -23.5 40t-43.5 14zM167 231l142 393l141 -393h-283z" />
<glyph unicode="B" horiz-adv-x="545" d="M64 0h236q46 0 86 15.5t69 44t46 67.5t17 86q0 34 -11.5 65t-32 54.5t-49.5 38.5t-64 18q48 19 73.5 56.5t25.5 88.5q0 42 -15.5 76.5t-42 59t-62.5 37.5t-77 13h-153q-20 0 -33 -10.5t-13 -31.5v-678zM151 414v228h100q24 0 45.5 -8.5t38.5 -23.5t27 -35.5t10 -44.5 q0 -26 -11.5 -47.5t-30 -36.5t-42.5 -23.5t-48 -8.5h-89zM150 77v268h138q28 0 53.5 -10t44.5 -28t30.5 -42.5t11.5 -53.5t-11.5 -53.5t-30.5 -42.5t-44.5 -28t-53.5 -10h-138z" />
<glyph unicode="C" horiz-adv-x="609" d="M37 353q0 -72 21 -138t62 -116t101 -79.5t137 -29.5q45 0 93.5 10.5t86.5 36.5q14 10 28.5 22.5t14.5 32.5q0 17 -11 30t-28 13q-11 0 -26 -10t-36.5 -22t-51 -22t-68.5 -10q-60 0 -104 25t-72.5 66t-42 93t-13.5 105q0 51 13 102.5t40 93t69 67.5t101 26q29 0 51.5 -5.5 t42 -15.5t37 -25.5t37.5 -34.5l50 45q-14 28 -37.5 50t-52.5 37t-60.5 23t-61.5 8q-81 0 -141 -31.5t-99.5 -84t-59.5 -121t-20 -141.5z" />
<glyph unicode="D" horiz-adv-x="642" d="M64 42q0 -21 14 -31.5t34 -10.5h179q80 0 139 30t98 80.5t58 117t19 140.5q0 69 -20.5 132.5t-60.5 112.5t-97.5 78t-131.5 29h-21h-42h-54h-53t-42 0.5t-19 1.5v-680zM150 78v564h138q57 0 99 -24t69.5 -62.5t41.5 -87.5t14 -100q0 -54 -12 -106.5t-39 -93t-70 -65.5 t-105 -25h-136z" />
<glyph unicode="E" horiz-adv-x="447" d="M64 47q0 -20 11.5 -33.5t32.5 -13.5h323v79h-279v241h198q17 0 28.5 11.5t11.5 28.5t-12 28t-29 11h-197v242h208q17 0 29 11.5t12 28.5q0 16 -12 27.5t-28 11.5h-252h-22t-22 2z" />
<glyph unicode="F" horiz-adv-x="412" d="M64 0h87v319h192q17 0 29 11.5t12 28.5q0 16 -12.5 27.5t-28.5 11.5h-190v244h237v79h-277q-20 0 -34.5 -12t-14.5 -33v-676z" />
<glyph unicode="G" horiz-adv-x="688" d="M571 331q0 -48 -11 -95t-35.5 -84.5t-63 -60.5t-93.5 -23q-64 0 -109 24t-74 64.5t-42.5 93.5t-13.5 110q0 53 13.5 105.5t42 94t72.5 67.5t104 26q33 0 56.5 -6t44 -16.5t40.5 -24.5t45 -30l50 64q-48 35 -103 61.5t-116 26.5q-83 0 -146.5 -29t-106.5 -79.5 t-65.5 -118.5t-22.5 -147q0 -77 22 -143.5t64 -115.5t104 -77t143 -28q73 0 127.5 28t90.5 74.5t53.5 108t17.5 128.5q0 40 -13 61t-56 21h-145q-17 0 -29.5 -12t-12.5 -29t12 -28t29 -11h127z" />
<glyph unicode="H" horiz-adv-x="684" d="M64 0l86 -1v332h383v-298q0 -17 12.5 -29.5t29.5 -12.5q18 0 31.5 12t13.5 31v687h-87v-314h-383v277q0 18 -12 31t-30 13t-31 -13t-13 -31v-684z" />
<glyph unicode="I" horiz-adv-x="214" d="M64 0h86v684q0 18 -12 31t-30 13t-31 -13t-13 -31v-684zM70 790q0 -14 11 -24.5t25 -10.5q15 0 25.5 10.5t10.5 25.5t-11 25t-25 10q-16 0 -26 -10.5t-10 -25.5z" />
<glyph unicode="J" horiz-adv-x="367" d="M260 729q-18 0 -30.5 -12.5t-12.5 -30.5v-514q0 -23 -5 -43t-16 -35t-29 -24t-43 -9q-13 0 -24 3.5t-21 9t-20.5 11t-21.5 9.5l-25 -72q27 -15 56.5 -24t61.5 -9q42 0 74 15.5t54 41.5t33.5 61.5t11.5 74.5v503q0 18 -12 31t-31 13z" />
<glyph unicode="K" horiz-adv-x="568" d="M64 0h87v345l344 -339q15 -15 36 -15q16 0 28 11t12 28q0 19 -15 34l-325 317l311 290l-62 56l-330 -311v270q0 19 -13 31t-31 12q-17 0 -29.5 -13t-12.5 -30v-686z" />
<glyph unicode="L" horiz-adv-x="381" d="M64 50q0 -20 10.5 -35.5t33.5 -15.5l263 1l-1 80h-220v605q0 18 -12 31t-30 13q-19 0 -31.5 -13.5t-12.5 -31.5v-634z" />
<glyph unicode="M" horiz-adv-x="854" d="M208 728q-25 0 -43.5 -14.5t-23.5 -39.5l-105 -627q-1 -5 -1 -15q0 -18 12 -29t30 -11q19 0 30.5 11t14.5 29l87 586l175 -594h86l176 594l91 -623l86 15l-110 664q-4 25 -23 39.5t-44 14.5t-40.5 -14t-22.5 -37l-156 -535l-155 535q-7 23 -23 37t-41 14z" />
<glyph unicode="N" horiz-adv-x="680" d="M64 1l86 -1v572l387 -563q13 -19 36 -19q18 0 30.5 12.5t12.5 30.5v651q0 18 -12.5 31.5t-31.5 13.5q-17 0 -29.5 -14t-12.5 -31l1 -536l-387 562q-13 19 -36 19q-18 0 -31 -13t-13 -31v-684z" />
<glyph unicode="O" horiz-adv-x="702" d="M37 361q0 -71 20 -137.5t59.5 -118t98.5 -83t136 -31.5t135.5 31t98.5 83t60 118t20 137q0 70 -20 136.5t-59.5 118t-98 83t-135.5 31.5t-136 -31t-99 -82t-60 -117.5t-20 -137.5zM132 360q0 50 11.5 102t37 94.5t67 69.5t100.5 27q63 0 105.5 -27t69 -70t37.5 -97 t11 -108q0 -52 -12.5 -103t-39.5 -91.5t-69 -65.5t-102 -25q-59 0 -100.5 27t-67 69.5t-37 95t-11.5 102.5z" />
<glyph unicode="P" horiz-adv-x="537" d="M64 35q0 -18 13 -31t31 -13t30 13t12 31v235h137q48 0 90.5 16.5t74 46t49.5 70.5t18 91q0 25 -4 45q-9 42 -30 75.5t-51 57t-68 36t-80 12.5q-55 0 -111 -2t-111 4v-687zM152 348v295h131q31 0 58 -11.5t47 -31.5t32 -47t12 -58q0 -30 -11.5 -57t-32 -47t-47.5 -31.5 t-57 -11.5h-132z" />
<glyph unicode="Q" horiz-adv-x="703" d="M603 133q35 53 48.5 108.5t13.5 118.5q0 70 -20 136t-60 118t-98.5 83.5t-134.5 31.5q-77 0 -136 -31t-99 -82t-60 -117.5t-20 -137.5t20 -137.5t60 -118.5t99 -83t136 -31q57 0 109 20.5t92 61.5l102 -102l54 57zM540 196q-7 7 -18.5 19.5t-24.5 25t-26 22t-23 9.5 q-16 0 -27.5 -11.5t-11.5 -27.5q0 -12 10 -26t23.5 -28t27.5 -26.5t22 -20.5q-26 -32 -62.5 -49t-78.5 -17q-62 0 -104.5 27.5t-68 71t-36.5 97t-11 106.5q0 50 12 100.5t38.5 91.5t67.5 67t99 26q60 0 102 -25t69 -66t39.5 -92.5t12.5 -103.5q0 -45 -7 -86.5t-24 -83.5z " />
<glyph unicode="R" horiz-adv-x="533" d="M64 35q0 -18 12.5 -31.5t31.5 -13.5q17 0 30 13t13 30v285l308 -342l65 54l-272 289q8 -2 15 -2h14q44 0 84 12t70 36t48 59.5t18 82.5q0 48 -17 87.5t-47 67t-70.5 43t-87.5 15.5q-54 0 -107.5 -1.5t-107.5 3.5v-687zM151 387v253h125q27 0 52 -10t43.5 -27.5 t29.5 -41.5t11 -52q0 -26 -10 -48t-26.5 -38.5t-39 -26t-47.5 -9.5h-138z" />
<glyph unicode="S" horiz-adv-x="488" d="M25 140l-25 -85q22 -8 54 -19t66 -21t66 -17t54 -7q46 0 88 18.5t74 50t51 73t19 88.5q0 38 -15 68.5t-39 54t-55 41t-63 29.5q-24 9 -54 19t-55.5 24.5t-43 36t-17.5 54.5q0 23 11 42t29 32t39.5 20t42.5 7q24 0 43.5 -7t35.5 -15t29.5 -15t26.5 -7q16 0 27 12.5 t11 28.5q0 21 -20.5 37t-48.5 26t-57 15t-45 5q-41 0 -80 -13.5t-69.5 -38.5t-49 -60.5t-18.5 -79.5q0 -57 25.5 -90.5t63.5 -54.5t82.5 -34.5t82.5 -30t63.5 -41t25.5 -66.5q0 -31 -11.5 -58t-31.5 -47.5t-47 -32t-58 -11.5q-33 0 -59.5 10t-55.5 22q-4 1 -18.5 7t-30.5 12 t-29 11.5t-14 6.5z" />
<glyph unicode="T" horiz-adv-x="440" d="M16 720v-79h159v-605q0 -17 13 -30.5t31 -13.5t30 13t12 31v605h140q16 0 28.5 11t12.5 28t-11.5 28.5t-28.5 11.5h-386z" />
<glyph unicode="U" horiz-adv-x="683" d="M64 255q0 -61 21 -110t58 -83.5t88 -53t110 -18.5q60 0 110.5 18.5t88 53t58.5 83.5t21 110v428q0 18 -13 31t-30 13q-19 0 -31 -13t-12 -31v-429q0 -43 -14 -78t-39 -59.5t-60.5 -38t-77.5 -13.5q-43 0 -78.5 13.5t-60.5 38t-39 59.5t-14 78v469h-86v-468z" />
<glyph unicode="V" horiz-adv-x="568" d="M78 730l-81 -30l241 -666q7 -19 15.5 -30.5t30.5 -11.5t30.5 11.5t15.5 30.5l226 630q2 5 3 10.5t1 11.5q0 17 -12.5 29.5t-30.5 12.5q-16 0 -26 -10t-15 -24l-191 -555z" />
<glyph unicode="W" horiz-adv-x="833" d="M15 713l119 -669q5 -26 22.5 -39.5t43.5 -13.5q23 0 40.5 11.5t23.5 33.5l152 547l153 -547q6 -22 23.5 -33.5t40.5 -11.5q26 0 43 13.5t22 39.5l113 628q1 4 1 13q0 20 -12.5 32t-32.5 12q-18 0 -28.5 -12.5t-13.5 -29.5l-96 -585l-169 592h-87l-169 -592l-104 626z" />
<glyph unicode="X" horiz-adv-x="599" d="M248 386l-228 -325q-10 -15 -10 -29q0 -17 13 -29t30 -12q11 0 21 6.5t16 15.5l209 304l210 -304q6 -9 16 -15.5t21 -6.5q17 0 29.5 11.5t12.5 28.5q0 15 -10 30l-228 325l194 274q4 6 7 12.5t3 13.5q0 17 -13.5 29.5t-30.5 12.5q-12 0 -21.5 -7t-16.5 -17l-173 -253 l-188 277l-73 -44z" />
<glyph unicode="Y" horiz-adv-x="506" d="M71 733l-72 -46q2 -3 2.5 -6.5t2.5 -6.5l205 -336v-302q0 -19 12 -32t32 -13q19 0 31.5 13t12.5 32v302l198 325q4 6 6 11.5t2 13.5q0 17 -12.5 28t-29.5 11q-26 0 -39 -22l-169 -280z" />
<glyph unicode="Z" horiz-adv-x="576" d="M416 644l-374 -564q-10 -15 -10 -31q0 -29 21.5 -39t45.5 -10h404q17 0 31 11t14 28t-14 28t-31 11h-364l377 566q6 9 11.5 19.5t5.5 21.5q0 14 -9 21.5t-22 10.5t-27 3h-24h-406v-76h371z" />
<glyph unicode="[" horiz-adv-x="229" d="M52 -3q0 -15 10.5 -27.5t26.5 -12.5h81q15 0 26 11t11 26t-7.5 22.5t-18 10.5t-23.5 3h-22v660h54v73h-101q-16 0 -26.5 -12.5t-10.5 -27.5v-726z" />
<glyph unicode="\" horiz-adv-x="289" d="M50 720l126 -720h63l-126 720h-63z" />
<glyph unicode="]" horiz-adv-x="229" d="M196 723q0 15 -10.5 27.5t-26.5 12.5h-81q-15 0 -26 -11t-11 -26t7.5 -22.5t18 -10.5t22.5 -3h23v-660h-54v-73h101q16 0 26.5 12.5t10.5 27.5v726z" />
<glyph unicode="^" horiz-adv-x="577" d="M50 174h72l166 303l167 -303h72l-239 421z" />
<glyph unicode="_" horiz-adv-x="460" d="M50 -217h360v27h-360v-27z" />
<glyph unicode="`" horiz-adv-x="220" d="M224 641l-171 67q-8 3 -17 3q-17 0 -28 -10.5t-11 -27.5q0 -14 7.5 -24t19.5 -15l172 -67z" />
<glyph unicode="a" horiz-adv-x="567" d="M419 471q-28 35 -67.5 53t-83.5 18q-56 0 -99 -24t-72.5 -62.5t-45 -87.5t-15.5 -100q0 -52 15 -101.5t44 -88.5t72.5 -63t100.5 -24q47 0 86.5 20.5t63.5 61.5v-77h85v504q0 16 -11.5 29t-28.5 13q-18 0 -27 -6.5t-12.5 -16.5t-4 -22.5t-0.5 -25.5zM126 269 q0 35 8.5 70.5t26.5 64.5t47 47t70 18q42 0 69.5 -17.5t44 -45t23 -62.5t6.5 -69q0 -38 -6 -75.5t-22.5 -67.5t-45.5 -49t-74 -19q-41 0 -69.5 19t-45.5 48.5t-24.5 66t-7.5 71.5z" />
<glyph unicode="b" horiz-adv-x="565" d="M64 33q0 -17 12.5 -30.5t30.5 -13.5q17 0 25.5 8t11.5 20t3 25v26q25 -39 64.5 -59t85.5 -20q59 0 102.5 24t72 63.5t42.5 90t14 103.5q0 49 -14.5 98t-43 87.5t-70.5 62.5t-97 24q-45 0 -85.5 -20t-67.5 -56v299h-86v-732zM147 264q0 35 6.5 71t23 65t44.5 47.5t71 18.5 q41 0 69 -18t45.5 -47t25 -64.5t7.5 -69.5q0 -33 -7.5 -69t-24 -65t-43.5 -48t-67 -19q-44 0 -72.5 17t-46 45t-24.5 63.5t-7 72.5z" />
<glyph unicode="c" horiz-adv-x="450" d="M37 265q0 -54 15.5 -103.5t46 -87t75.5 -60t103 -22.5q16 0 40.5 3t47.5 11t39.5 21.5t16.5 35.5q0 15 -11.5 26.5t-27.5 11.5q-9 0 -21 -5t-26 -10.5t-29 -10.5t-30 -5q-38 0 -65.5 19t-46 48t-27.5 64.5t-9 67.5q0 35 9 70t27.5 62.5t47.5 45t70 17.5q30 0 59 -13 t55 -27l41 70q-20 11 -38 20t-36 15t-37.5 9.5t-43.5 3.5q-59 0 -104.5 -22.5t-77 -61t-47.5 -88.5t-16 -105z" />
<glyph unicode="d" horiz-adv-x="568" d="M419 461q-23 40 -62 60.5t-85 20.5q-57 0 -101 -23.5t-73.5 -62.5t-45 -89t-15.5 -102q0 -48 15 -97t43.5 -88t70.5 -63.5t96 -24.5q48 0 89 21.5t67 62.5v-28t3.5 -27.5t12.5 -21t28 -8.5q17 0 29.5 12.5t12.5 29.5v732h-85v-304zM271 71q-40 0 -67.5 18.5t-45 47 t-25 64t-7.5 68.5q0 34 8.5 68.5t27 62.5t47 45.5t67.5 17.5q44 0 72 -19.5t43.5 -49.5t21.5 -67t6 -72t-8.5 -68t-26.5 -58.5t-46 -41.5t-67 -16z" />
<glyph unicode="e" horiz-adv-x="538" d="M131 233h324q27 0 40 9t13 38q0 49 -16 96t-45.5 83.5t-72 59t-95.5 22.5q-56 0 -100.5 -23t-76 -61t-48.5 -87.5t-17 -101.5q0 -56 16.5 -106.5t48.5 -88.5t78 -60.5t106 -22.5q37 0 67.5 8.5t64.5 22.5l-19 67q-26 -8 -54 -14.5t-56 -6.5q-34 0 -63 13.5t-50 36t-33 53 t-12 63.5zM129 299q4 31 14 62t27 55t43 39t64 15q33 0 59 -15.5t44 -40t28 -55t11 -60.5h-290z" />
<glyph unicode="f" horiz-adv-x="253" d="M83 534q-11 0 -25 0.5t-27 -2t-22 -10t-9 -24.5q0 -18 8.5 -26.5t21 -11.5t27 -2t27.5 1v-672h85v672q10 0 27.5 -1.5t34 1t28.5 10.5t12 27t-12 27.5t-28.5 10.5t-33.5 1t-28 -1v138q0 17 12.5 23.5t26.5 6.5h22q13 0 23 3t17 11t7 24q0 20 -16.5 29.5t-33.5 9.5h-38 q-49 0 -77.5 -32t-28.5 -80v-133z" />
<glyph unicode="g" horiz-adv-x="565" d="M420 463q-26 38 -67 58t-86 20q-58 0 -101 -25.5t-71.5 -66.5t-43 -92t-14.5 -102t14.5 -99t43.5 -86t71 -61t98 -23q48 0 88 20.5t66 61.5q1 -5 1 -11v-10q0 -40 -9 -75.5t-29 -62t-51.5 -42t-76.5 -15.5q-33 0 -64 9q-2 -18 -3.5 -36.5t-1.5 -37.5v-3t1 -3 q15 -5 31.5 -6t32.5 -1q53 0 99 19t80 52.5t53.5 79t19.5 98.5v476q0 16 -11.5 29.5t-28.5 13.5q-18 0 -26.5 -7.5t-12 -19t-3 -25.5t0.5 -27zM280 64q-43 0 -72.5 18t-47.5 47t-26 65.5t-8 72.5q0 35 8.5 70.5t26.5 63.5t47 45.5t70 17.5q35 0 67 -18q26 -15 41 -36 t22.5 -45.5t9 -52t1.5 -54.5q0 -32 -7.5 -66t-24 -62.5t-43 -47t-64.5 -18.5z" />
<glyph unicode="h" horiz-adv-x="548" d="M64 -2h84v342q0 26 10 49t27 40.5t40 27.5t49 10t49 -10.5t40 -28t27 -41t10 -49.5v-307q0 -17 12 -29.5t29 -12.5q18 0 30.5 12.5t12.5 30.5v306q0 43 -13.5 80t-38.5 64.5t-60.5 43t-80.5 15.5q-42 0 -80 -18t-62 -52v263q0 17 -12 30t-30 13t-30.5 -13t-12.5 -31v-735 z" />
<glyph unicode="i" horiz-adv-x="214" d="M65 -1h84v501q0 16 -11.5 29t-28.5 13q-18 0 -31 -11.5t-13 -30.5v-501zM70 660q0 -14 11 -24.5t25 -10.5q15 0 25.5 10.5t10.5 25.5t-11 25t-25 10q-16 0 -26 -10.5t-10 -25.5z" />
<glyph unicode="j" horiz-adv-x="212" d="M64 -212h84v712q0 17 -12.5 30.5t-30.5 13.5q-19 0 -30 -13.5t-11 -31.5v-711zM70 660q0 -14 11 -24.5t25 -10.5q15 0 25.5 10.5t10.5 25.5t-11 25t-25 10q-16 0 -26 -10.5t-10 -25.5z" />
<glyph unicode="k" horiz-adv-x="465" d="M64 1l84 -1v256l258 -264l65 51l-264 262l209 163q8 6 13.5 15t5.5 20q0 14 -11.5 26.5t-26.5 12.5q-10 0 -18.5 -5t-16.5 -11l-213 -176v386q0 18 -12 31t-30 13t-30.5 -13t-12.5 -30v-736z" />
<glyph unicode="l" horiz-adv-x="212" d="M64 -2l84 1v737q0 18 -12 31t-30 13t-30 -13t-12 -31v-738z" />
<glyph unicode="m" horiz-adv-x="846" d="M64 0h85v353q0 24 9 45t25 37t37 25t45 9t45.5 -9t37.5 -25t25.5 -37.5t9.5 -45.5v-352h83v352q0 24 9.5 45.5t25 37t37 25t45.5 9.5t45 -9.5t36.5 -25t24.5 -37t9 -45.5v-318q0 -17 12.5 -30t29.5 -13q18 0 30 13t12 30v321q0 87 -51.5 136.5t-137.5 49.5 q-51 0 -94.5 -23t-67.5 -68q-20 45 -61.5 69t-89.5 24q-38 0 -74.5 -17t-58.5 -49q0 11 -0.5 22.5t-4.5 21t-12 15.5t-23 6q-17 0 -30 -13t-13 -30v-499z" />
<glyph unicode="n" horiz-adv-x="548" d="M64 -1h84v341q0 26 9.5 49t26.5 40.5t40 27.5t49 10t49 -10.5t40.5 -28t27.5 -41t10 -49.5v-307q0 -17 12 -29.5t29 -12.5q18 0 30.5 12.5t12.5 30.5v307q0 44 -13.5 81t-39 64t-61.5 42t-81 15q-41 0 -79.5 -18t-61.5 -52v24t-3.5 23.5t-12 17.5t-24.5 7 q-18 0 -31 -12.5t-13 -30.5v-501z" />
<glyph unicode="o" horiz-adv-x="547" d="M37 268q0 -52 15.5 -102t46 -89.5t74.5 -63.5t101 -24q56 0 100 24t74 63.5t45.5 89.5t15.5 101q0 52 -16 101.5t-46 88t-74 62t-100 23.5t-100 -23.5t-74 -62t-46 -88t-16 -100.5zM127 267q0 33 8 68t25.5 64.5t45 48.5t66.5 19q40 0 68 -18.5t46 -47t26 -64t8 -69.5 q0 -35 -8 -71t-25.5 -65.5t-46 -48t-69.5 -18.5q-39 0 -66.5 19t-44.5 49t-25 65.5t-8 68.5z" />
<glyph unicode="p" horiz-adv-x="566" d="M64 -212h84v278q26 -37 66.5 -56.5t85.5 -19.5q57 0 100 25t71.5 65t43 90.5t14.5 101.5q0 49 -15 98t-43.5 87t-70.5 62t-97 24q-47 0 -88.5 -21t-67.5 -61q0 13 0.5 27.5t-3 26.5t-12.5 19.5t-28 7.5q-17 0 -28.5 -14t-11.5 -30v-710zM144 262q0 28 2.5 55t11 51.5 t24.5 45t43 35.5q35 19 70 19q39 0 67 -19.5t45 -49.5t25 -65.5t8 -68.5q0 -34 -8.5 -69.5t-26.5 -64t-46.5 -46.5t-67.5 -18q-40 0 -68 17.5t-45.5 45.5t-25.5 62.5t-8 69.5z" />
<glyph unicode="q" horiz-adv-x="567" d="M418 464q-26 38 -67 58t-87 20q-56 0 -98 -24.5t-71 -64t-43.5 -89t-14.5 -99.5t15 -98.5t44.5 -87.5t72 -63t96.5 -24q46 0 86.5 20t66.5 57v-281h85v711q0 17 -12 30t-29 13q-19 0 -28 -7t-12.5 -18.5t-3.5 -25.5v-27zM126 270q0 34 8 69.5t25 63.5t45 46t69 18 q27 0 52 -10.5t45 -29.5q18 -17 28 -37.5t15 -42.5t6.5 -45.5t1.5 -46.5q0 -35 -8 -68.5t-26 -60t-46.5 -43t-68.5 -16.5t-68 19t-45 48.5t-25 65.5t-8 70z" />
<glyph unicode="r" horiz-adv-x="273" d="M64 -2l85 1v276q0 51 11 82.5t27 50.5t35.5 29t35.5 17.5t27 16.5t11 26q0 20 -14.5 33t-34.5 13q-17 0 -33 -8.5t-29 -22t-23 -29.5t-15 -31q1 13 2 25.5t1 25.5q0 17 -14 27t-29 10q-17 0 -30 -12t-13 -30v-500z" />
<glyph unicode="s" horiz-adv-x="446" d="M23 76q16 -20 39.5 -36t50 -26.5t54 -16t53.5 -5.5q34 0 69 9.5t63.5 29t46.5 48.5t18 68q0 42 -21.5 71.5t-53 50t-69 34.5t-69 28t-53 28.5t-21.5 36.5q0 18 8 31.5t21 22.5t29.5 13t32.5 4q26 0 48 -8t40 -18t32 -18t25 -8q17 0 27.5 12t10.5 27q0 23 -21.5 39.5 t-51 27.5t-59.5 16t-48 5q-32 0 -64 -9.5t-58 -28t-42.5 -45.5t-16.5 -63q0 -40 21.5 -66.5t53 -45t69 -31.5t69 -27.5t53 -32.5t21.5 -46q0 -20 -10 -34.5t-25 -25t-33.5 -15.5t-35.5 -5q-26 0 -45 5t-35.5 14t-33 21t-35.5 26z" />
<glyph unicode="t" horiz-adv-x="248" d="M84 534q-11 0 -25 0.5t-26.5 -2.5t-21 -11t-8.5 -25t9 -25t21.5 -10.5t26.5 -2t25 0.5v-459h84v459q10 0 25 -0.5t28 2t22.5 10.5t9.5 25q0 18 -9.5 26t-23 10.5t-28.5 2t-25 -0.5l1 120q0 17 -12.5 31.5t-30.5 14.5q-19 0 -30.5 -14.5t-11.5 -31.5v-120z" />
<glyph unicode="u" horiz-adv-x="550" d="M64 198q0 -102 55 -154.5t156 -52.5t156 52.5t55 154.5v300q0 18 -12 31t-30 13q-17 0 -29.5 -13t-12.5 -30v-299q0 -63 -30.5 -98.5t-96.5 -35.5t-96 35.5t-30 98.5v323l-85 -1v-324z" />
<glyph unicode="v" horiz-adv-x="433" d="M79 541l-80 -26l174 -491q6 -17 16.5 -25t28.5 -8q16 0 27 9.5t16 23.5q4 13 18 51.5t32.5 89t38.5 106.5t36.5 104.5t27.5 82.5t11 40q0 17 -13 30t-30 13q-15 0 -24.5 -8.5t-14.5 -22.5l-125 -376z" />
<glyph unicode="w" horiz-adv-x="761" d="M3 514l160 -477q6 -19 17 -32.5t34 -13.5q21 0 32 12.5t17 30.5l118 369l117 -369q6 -18 17 -30.5t32 -12.5q23 0 33.5 13.5t17.5 32.5l152 447q3 7 3 16q0 18 -13 30t-31 12q-14 0 -25.5 -8.5t-16.5 -22.5l-121 -384l-118 372h-94l-119 -372l-129 414z" />
<glyph unicode="x" horiz-adv-x="476" d="M186 284l-166 -222q-10 -13 -10 -30t12 -28.5t29 -11.5q12 0 22 6.5t17 16.5l148 205l148 -205q7 -10 17 -16.5t22 -6.5q17 0 29 11.5t12 28.5t-10 30l-166 222l145 189q10 13 10 29t-12 28t-29 12q-12 0 -22 -7t-17 -17l-127 -171l-145 194l-70 -45z" />
<glyph unicode="y" horiz-adv-x="433" d="M2 508l172 -491q-5 -12 -16.5 -41t-23.5 -60.5t-21.5 -59.5t-9.5 -37q0 -18 13 -29t30 -11t26.5 11.5t14.5 25.5q4 12 16.5 47l30 84t38.5 108t42 118.5t41 116.5t35.5 102t24.5 74.5t9 34.5q0 17 -13 29t-30 12q-16 0 -26 -10.5t-15 -24.5l-122 -374l-134 401z" />
<glyph unicode="z" horiz-adv-x="451" d="M303 457l-268 -395q-8 -13 -8 -25q0 -17 11.5 -27t27.5 -10h323q17 0 30.5 10.5t13.5 28.5q0 17 -13.5 27.5t-30.5 10.5h-245l269 396q4 5 6.5 11.5t2.5 13.5q0 17 -11 26.5t-28 9.5h-345v-77h265z" />
<glyph unicode="{" horiz-adv-x="321" d="M50 360q29 -3 45.5 -22.5t16.5 -48.5v-335q0 -35 23 -50.5t55 -15.5h64v37q-20 0 -33.5 1.5t-21.5 7.5t-11.5 18t-3.5 34v296q0 29 -18.5 52t-48.5 26q30 3 48.5 26t18.5 52v296q0 39 13.5 50t30 11.5t30 0t13.5 15.5q0 8 -4 14.5t-13 6.5h-64q-32 0 -55 -15.5t-23 -50.5 v-335q0 -28 -16.5 -48.5t-45.5 -22.5z" />
<glyph unicode="|" horiz-adv-x="163" d="M50 0h63v720h-63v-720z" />
<glyph unicode="}" horiz-adv-x="321" d="M67 832q-8 0 -12.5 -5.5t-4.5 -12.5q0 -13 6.5 -16t15.5 -3h21q12 0 21.5 -4.5t16 -17.5t6.5 -39v-296q0 -29 19 -52t49 -26q-30 -3 -49 -25.5t-19 -52.5v-296q0 -22 -3.5 -34t-11.5 -18t-21.5 -7.5t-33.5 -1.5v-37h65q32 0 54.5 15.5t22.5 50.5v335q0 29 16.5 48.5 t45.5 22.5q-29 2 -45.5 22.5t-16.5 48.5v335q0 35 -22.5 50.5t-54.5 15.5h-65z" />
<glyph unicode="~" horiz-adv-x="459" d="M50 292h50q1 18 8.5 37t29.5 19q23 0 45 -8.5t44.5 -19t45 -19t46.5 -8.5t41 10t28 26t16 36.5t5 41.5v11h-50q-1 -19 -9 -37.5t-30 -18.5q-23 0 -44.5 8.5t-44 19t-45 19.5t-46.5 9t-41 -10t-28 -26.5t-16 -37t-5 -41.5v-11z" />
<glyph unicode="&#xa1;" horiz-adv-x="210" d="M52 684q0 -23 14.5 -38.5t37.5 -15.5t38.5 14.5t15.5 37.5q0 22 -15.5 37.5t-37.5 15.5q-21 0 -37 -14.5t-16 -36.5zM64 28q0 -17 11.5 -29.5t28.5 -12.5t30 13t13 30v494l-83 -1v-494z" />
<glyph unicode="&#xa2;" horiz-adv-x="450" d="M230 538q-46 -8 -82 -34.5t-61 -64t-38 -82.5t-13 -88q0 -45 12 -90.5t36 -84t60.5 -65t85.5 -32.5q0 -10 -1 -19.5t-1 -19.5q0 -5 0.5 -12.5t2.5 -14.5t6 -11.5t12 -4.5q7 0 11 4.5t6 11t2.5 13.5t0.5 12q0 10 -1 19t-1 18q13 -1 33 4t41.5 12.5t41.5 15.5t32 14l-31 62 l-65 -24q-1 0 -13 -2t-16 -2h-12t-11 2v388q5 1 10 1.5t10 0.5q21 0 40.5 -8t38.5 -17h1q5 -2 9 -3t9 -1q16 0 27.5 13.5t11.5 28.5q0 18 -16 30.5t-37.5 20.5t-44 11.5t-35.5 3.5h-12t-12 -1q0 10 1 20t1 20q0 5 -0.5 12t-2.5 13.5t-6 11t-11 4.5q-8 0 -12 -4.5t-6.5 -11 t-3 -13.5t-0.5 -13q0 -11 1.5 -22t1.5 -22zM230 455v-371q-58 28 -79.5 79.5t-21.5 111.5q0 26 5.5 54t17.5 53t31 44.5t47 28.5z" />
<glyph unicode="&#xa3;" horiz-adv-x="596" d="M152 400h-81q-17 0 -29.5 -11.5t-12.5 -28.5t12.5 -28t29.5 -11h104q7 -25 7 -55q0 -45 -18 -80.5t-39.5 -63t-39.5 -47t-18 -33.5q0 -17 13 -29.5t30 -12.5h446l-1 80h-372q19 16 35 37.5t27.5 46t18 50.5t6.5 51q0 15 -2.5 28.5t-4.5 28.5h137v79h-157q-8 15 -17 32.5 t-16.5 35.5t-12.5 36t-5 36q0 27 10.5 48t28 35.5t40.5 22t48 7.5q91 0 137 -82q6 -11 10 -23t11 -21q11 -16 31 -16t32 13.5t12 33.5q0 27 -17 54.5t-34 47.5q-34 39 -83.5 58t-100.5 19q-41 0 -79.5 -12t-68.5 -35t-48 -57t-18 -78t14.5 -81t34.5 -75z" />
<glyph unicode="&#xa4;" horiz-adv-x="609" d="M20 333l-24 -66h89q11 -58 36.5 -108.5t65 -88t92.5 -59t119 -21.5q45 0 93.5 10.5t86.5 36.5q14 10 28.5 22.5t14.5 32.5q0 17 -11 30t-28 13q-11 0 -26 -10t-36.5 -22t-51 -22t-68.5 -10q-47 0 -84 15.5t-64 42.5t-45.5 62.5t-27.5 75.5h243q14 0 27.5 9.5t18.5 23.5 t-2 23.5t-21 9.5h-276q-1 7 -1 13v14v16t1 16h306l23 67h-318q10 38 27.5 72.5t43.5 60.5t61 41.5t79 15.5q29 0 51.5 -5.5t42 -15.5t37 -25.5t37.5 -34.5l50 45q-14 28 -37.5 50t-52.5 37t-60.5 23t-61.5 8q-66 0 -118 -21.5t-90.5 -58t-63.5 -86t-37 -106.5h-15 q-14 0 -27.5 -9.5t-18.5 -23.5t1.5 -24t20.5 -10h29q-1 -10 -1 -20v-19v-20h-57z" />
<glyph unicode="&#xa5;" horiz-adv-x="578" d="M289 425l-169 280q-6 11 -17 16.5t-23 5.5q-16 0 -28.5 -11t-12.5 -28q0 -13 7 -25l153 -252l-125 -1l-1 -48l156 1l14 -25l2 -20h-172v-49l171 1l1 -272h88l-2 272l162 1q10 0 17.5 7t7.5 17q0 11 -7.5 17.5t-17.5 6.5h-162v19l15 25l146 1q11 0 18.5 6.5t7.5 17.5 t-7.5 17.5t-18.5 6.5h-114l153 251q4 6 6 11.5t2 13.5q0 17 -12.5 28t-29.5 11q-26 0 -39 -22z" />
<glyph unicode="&#xa6;" horiz-adv-x="647" d="M308 631q0 23 -16 38t-38 15t-36.5 -16t-14.5 -37q0 -20 15 -36t36 -16q23 0 38.5 14.5t15.5 37.5zM543 95q0 8 -3 14.5t-7 13.5l-87 143l88 143q8 13 8 27t-9 25t-24 11q-12 0 -22.5 -7t-16.5 -17l-89 -152q-4 -6 -8 -13t-4 -15t6 -18t10 -17l85 -147q6 -11 15.5 -18.5 t22.5 -7.5t24 10.5t11 24.5zM116 632q0 21 -15 36.5t-36 15.5q-23 0 -38.5 -15t-15.5 -38t15.5 -37.5t38.5 -14.5q21 0 36 16t15 37zM213 -1v501q0 16 -12 29t-28 13q-19 0 -31.5 -11.5t-12.5 -30.5v-501h84zM331 -87q0 17 -12 29t-29 12q-9 0 -24 -5.5t-32 -12.5t-32 -14 t-24 -11q-9 4 -25 11t-33 14t-32.5 12.5t-24.5 5.5q-17 0 -28.5 -11.5t-11.5 -28.5q0 -12 7 -22.5t18 -15.5l107 -42q5 -2 10.5 -4t11.5 -2q7 0 13.5 2.5t12.5 4.5l104 41q11 5 17.5 15t6.5 22zM281 629q0 -11 -11 -11t-11 11t11 11t11 -11zM97 626q0 -11 -11 -11t-11 11 t11 11t11 -11z" />
<glyph unicode="&#xa7;" horiz-adv-x="571" d="M137 454q-21 -12 -40 -31t-34 -41.5t-23.5 -47.5t-8.5 -50q0 -60 26.5 -99t66.5 -66t87 -46t87 -38t66.5 -42t26.5 -58q0 -25 -13 -40.5t-32.5 -24t-42 -11.5t-41.5 -3q-41 0 -64 9t-35 23t-16 29.5t-8 29.5t-10.5 23t-23.5 9q-22 0 -34 -15.5t-12 -35.5 q0 -40 19.5 -68.5t49.5 -47t66.5 -27.5t70.5 -9q39 0 77 8.5t69 28t50 51t19 76.5q0 36 -17.5 68.5t-46.5 52.5q25 10 47.5 27.5t39 39.5t26 48t9.5 54q0 54 -27.5 91.5t-69 64.5t-90 47t-90 40.5t-69 45t-27.5 59.5q0 23 12 38.5t30 25t39 13.5t40 4q39 0 63.5 -6t42 -19 t32.5 -33.5t36 -50.5l63 42q-24 39 -44 66.5t-44 45t-56.5 25.5t-80.5 8q-40 0 -79.5 -7.5t-71.5 -26t-52 -49.5t-20 -79q0 -35 16.5 -68t45.5 -53zM204 412l156 -77q17 -8 33.5 -18.5t29.5 -24t21 -30.5t8 -38q0 -23 -11.5 -41.5t-29 -33.5t-38 -26t-39.5 -17l-129 65 q-16 8 -32.5 18.5t-30.5 24t-23 30t-9 36.5t8.5 39.5t22 37t30 32t33.5 23.5z" />
<glyph unicode="&#xa8;" horiz-adv-x="239" d="M-29 631q0 -23 16 -37.5t38 -14.5t37 16t15 37t-15.5 36.5t-36.5 15.5q-23 0 -38.5 -15t-15.5 -38zM163 631q0 -20 15 -36t36 -16q23 0 38.5 14.5t15.5 37.5t-15.5 38t-38.5 15q-22 0 -36.5 -16t-14.5 -37z" />
<glyph unicode="&#xa9;" horiz-adv-x="858" d="M56 361q0 -77 29.5 -145t80 -118.5t118.5 -80t145 -29.5t145 29.5t118.5 80t80 118.5t29.5 145t-29.5 145t-80 118.5t-118.5 80t-145 29.5t-145 -29.5t-118.5 -80t-80 -118.5t-29.5 -145zM103 361q0 68 25 128t69 105t103.5 71.5t128.5 26.5q68 0 127.5 -26.5t104 -71.5 t70 -105.5t25.5 -127.5q0 -68 -25.5 -128t-70 -105t-104 -71.5t-127.5 -26.5q-69 0 -128.5 26.5t-103.5 71.5t-69 105t-25 128zM241 355q0 -45 13.5 -86t39 -72t63 -49t85.5 -18q13 0 36.5 2.5t46 10t39 20.5t16.5 33q0 11 -7 19t-18 8q-8 0 -18 -6t-23.5 -12.5t-31 -12.5 t-40.5 -6q-36 0 -62 15t-43 39t-25.5 55t-8.5 63q0 30 8 61t24.5 56t42.5 41t61 16q22 0 38 -6t28 -13t22 -13t20 -6t17 8t7 18q0 19 -15 32t-36 21t-43 11.5t-35 3.5q-50 0 -88 -19t-63 -51t-37.5 -74.5t-12.5 -88.5z" />
<glyph unicode="&#xaa;" horiz-adv-x="436" d="M77 322l-1 -46h287q9 0 16 6.5t7 15.5q0 10 -6.5 17t-16.5 7h-286zM310 685q-18 23 -44 35t-55 12q-38 0 -67 -16t-49 -42.5t-30 -60t-10 -67.5t10 -67t29.5 -59.5t48 -42.5t66.5 -16q30 0 57.5 14t43.5 40v-44l62 -1v330q0 12 -8.5 22t-21.5 10q-24 0 -28 -14.5 t-4 -32.5zM119 548q0 22 5.5 45t17.5 42t30.5 30.5t44.5 11.5q27 0 45 -11.5t29 -29.5t15.5 -40.5t4.5 -44.5q0 -24 -4 -48t-14.5 -43.5t-29.5 -31.5t-48 -12q-27 0 -45 12.5t-29.5 31.5t-16.5 42.5t-5 45.5z" />
<glyph unicode="&#xab;" horiz-adv-x="407" d="M179 472q-12 0 -22.5 -7t-16.5 -17l-89 -152q-4 -6 -8 -13t-4 -15q0 -5 8.5 -22.5t21.5 -40.5t28.5 -48.5t28.5 -47.5t22.5 -37t10.5 -17l63 37l-106 174l88 143q8 13 8 27t-9 25t-24 11zM334 472q-12 0 -22.5 -7t-16.5 -17l-90 -152q-4 -6 -8 -13t-4 -15q0 -5 8.5 -22.5 t21.5 -40.5t28.5 -48.5t28.5 -47.5t22.5 -37t10.5 -17l64 37l-107 174l89 143q8 13 8 27t-9 25t-24 11z" />
<glyph unicode="&#xac;" horiz-adv-x="568" d="M50 360h414v-144h54v207h-468v-63z" />
<glyph unicode="&#xad;" horiz-adv-x="360" d="M44 328l1 -78h238q16 0 27 11.5t11 27.5t-11 27.5t-27 11.5h-239z" />
<glyph unicode="&#xae;" horiz-adv-x="858" d="M56 361q0 -77 29.5 -145t80 -118.5t118.5 -80t145 -29.5t145 29.5t118.5 80t80 118.5t29.5 145t-29.5 145t-80 118.5t-118.5 80t-145 29.5t-145 -29.5t-118.5 -80t-80 -118.5t-29.5 -145zM103 361q0 68 25 128t69 105t103.5 71.5t128.5 26.5q68 0 127.5 -26.5t104 -71.5 t70 -105.5t25.5 -127.5q0 -68 -25.5 -128t-70 -105t-104 -71.5t-127.5 -26.5q-69 0 -128.5 26.5t-103.5 71.5t-69 105t-25 128zM301 165q0 -12 9 -21t21 -9t21 8.5t9 20.5v171l169 -189q9 -11 23 -11q11 0 20 8.5t9 20.5q0 11 -8 19l-145 153q28 -4 54.5 2.5t47.5 22 t33.5 39t12.5 53.5t-11 54.5t-29.5 42t-44 27t-54.5 9.5h-106q-13 0 -22 -9t-9 -22v-390zM361 381v150h75q15 0 29.5 -5.5t25.5 -15.5t18 -23.5t7 -29.5q0 -32 -20.5 -54t-52.5 -22h-82z" />
<glyph unicode="&#xaf;" horiz-adv-x="291" d="M40 666q-17 0 -28.5 -11.5t-11.5 -28.5t12 -28t29 -11l210 -1q17 0 29.5 11.5t12.5 28.5t-12 28.5t-29 11.5h-212z" />
<glyph unicode="&#xb0;" horiz-adv-x="366" d="M50 601q0 -27 10.5 -51.5t28.5 -42.5t42.5 -28.5t51.5 -10.5t51.5 10.5t42.5 28.5t28.5 42.5t10.5 51.5q0 28 -10.5 52t-28.5 42t-42 28.5t-52 10.5q-27 0 -51.5 -10.5t-42.5 -28.5t-28.5 -42.5t-10.5 -51.5zM93 601q0 38 26 64t64 26t64 -26t26 -64t-26 -64t-64 -26 t-64 26t-26 64z" />
<glyph unicode="&#xb1;" horiz-adv-x="618" d="M506 87h-462v-68h462v68zM309 453h-68v-122h-197v-68h197v-122h68v122h197v68h-197v122z" />
<glyph unicode="&#xb2;" />
<glyph unicode="&#xb3;" />
<glyph unicode="&#xb4;" horiz-adv-x="224" d="M196 719l-168 -66q-12 -5 -19.5 -15.5t-7.5 -23.5q0 -17 12 -28t29 -11q9 0 34 9t54.5 21t56 23t37.5 16z" />
<glyph unicode="&#xb5;" horiz-adv-x="604" d="M166 449h-92v-248q0 -49 1.5 -97t1.5 -96q0 -36 -2 -72.5t-2 -72.5q0 -12 1 -24.5t5.5 -23t13 -17.5t23.5 -7q20 0 31 11t11 31q0 15 -10 40t-22 55.5t-22 65t-10 68.5q0 8 0.5 16t0.5 16q11 -45 37 -74t76 -29q37 0 63 15.5t44.5 40t30.5 55.5t20 61q0 -26 3.5 -56 t14 -55.5t30.5 -43t54 -17.5q25 0 42.5 10t28 26.5t15 37.5t4.5 43q0 5 -0.5 11t-0.5 11h-21q0 -11 -0.5 -27.5t-4.5 -31.5t-13 -26t-25 -11q-14 0 -22 10t-11.5 24t-4 28.5t-0.5 24.5v328h-92q0 -41 1 -84t-2 -86t-11 -84.5t-26 -80.5q-7 -15 -16 -29t-20.5 -25.5 t-26 -18.5t-32.5 -7q-25 0 -38 11.5t-19 29.5t-6.5 39t-0.5 39v296z" />
<glyph unicode="&#xb6;" horiz-adv-x="611" d="M434 -212l56 1l1 879q8 0 20 -0.5t23 1t19 7t8 18.5q0 11 -8 18.5t-19 7.5h-290q-41 0 -76 -15.5t-61.5 -42t-41.5 -62.5t-15 -76q0 -41 15 -76.5t41.5 -62t61.5 -42t76 -15.5h69v-539h55l1 878l66 1z" />
<glyph unicode="&#xb7;" horiz-adv-x="214" d="M54 262q0 -21 16 -36.5t37 -15.5q22 0 37.5 15.5t15.5 36.5q0 23 -16 38t-38 15t-37 -16t-15 -37z" />
<glyph unicode="&#xb8;" horiz-adv-x="162" d="M85 30l-55 -99q-12 -21 -12 -47q0 -14 10.5 -25t24.5 -11q10 0 19 6t14 15l76 161h-77z" />
<glyph unicode="&#xb9;" />
<glyph unicode="&#xba;" horiz-adv-x="427" d="M75 323v-47h278q10 0 17 7t7 17t-7 16.5t-17 6.5h-278zM54 548q0 -35 11 -69t31.5 -60.5t50.5 -42.5t68 -16q37 0 67 15.5t51 41.5t32 58.5t11 67.5t-10.5 69t-31 60.5t-50 43t-68.5 16.5q-38 0 -68 -15.5t-51 -41t-32 -59t-11 -68.5zM120 547q0 21 5 44t16.5 42t29 31 t42.5 12q27 0 46 -12.5t30 -32.5t16 -44t5 -47q0 -22 -5.5 -44t-17.5 -40t-30.5 -29t-43.5 -11q-26 0 -43.5 12.5t-28.5 31.5t-16 42.5t-5 44.5z" />
<glyph unicode="&#xbb;" horiz-adv-x="407" d="M88 482l-63 -38l111 -179l-88 -143q-8 -13 -8 -27q0 -15 9 -25.5t24 -10.5q12 0 22.5 7t16.5 17l89 151q4 6 8 13t4 15q0 5 -9 23t-22.5 42t-29.5 50.5t-30 49t-23.5 38t-10.5 17.5zM243 482l-64 -38l112 -179l-88 -143q-8 -13 -8 -27q0 -15 8.5 -25.5t24.5 -10.5 q12 0 22.5 6.5t16.5 17.5l89 151q4 6 8 13t4 15q0 5 -9 23t-22.5 42t-29.5 50.5t-30 49t-23.5 38t-10.5 17.5z" />
<glyph unicode="&#xbc;" />
<glyph unicode="&#xbd;" />
<glyph unicode="&#xbe;" />
<glyph unicode="&#xbf;" horiz-adv-x="464" d="M165 685q0 -22 14.5 -38t37.5 -16q22 0 37.5 15.5t15.5 36.5q0 23 -15.5 37.5t-37.5 14.5q-20 0 -36 -14.5t-16 -35.5zM175 523v-195q0 -15 12 -22t30 -12t39 -10.5t39 -17.5t30 -34t12 -58q0 -50 -33 -78.5t-81 -28.5q-35 0 -56 8.5t-33.5 21t-19 27.5t-12 27.5 t-13.5 21t-23 8.5q-20 0 -31 -14.5t-11 -33.5q0 -23 11 -43.5t25 -37.5q29 -35 71 -51t87 -16q42 0 81 12t68 36t46.5 59t17.5 80q0 39 -13 72t-36 58.5t-54.5 42t-69.5 22.5v156h-83z" />
<glyph unicode="&#xc0;" horiz-adv-x="618" d="M420 800q0 13 -7.5 23.5t-19.5 15.5q-11 4 -33 13.5t-47 19.5t-47 17.5t-31 7.5q-17 0 -28 -10.5t-11 -27.5q0 -14 7.5 -24t19.5 -15q10 -4 32.5 -13.5t47.5 -19.5t46.5 -17.5t30.5 -7.5q17 0 28.5 10.5t11.5 27.5zM306 728q-25 0 -39 -16.5t-22 -37.5l-230 -619 q-5 -13 -5 -24q0 -17 11.5 -29t29.5 -12q14 0 25 8.5t16 21.5l51 135h332l63 -165l86 25l-251 659q-10 26 -23.5 40t-43.5 14zM167 231l142 393l141 -393h-283z" />
<glyph unicode="&#xc1;" horiz-adv-x="618" d="M382 897q-9 0 -30.5 -7.5t-46.5 -17.5t-47.5 -19.5t-32.5 -13.5q-12 -5 -19.5 -15.5t-7.5 -23.5q0 -17 12 -28t29 -11q9 0 30.5 7.5t46 17.5t47 19.5t32.5 13.5q12 5 19.5 15.5t7.5 23.5q0 17 -11.5 28t-28.5 11zM306 728q-25 0 -39 -16.5t-22 -37.5l-230 -619 q-5 -13 -5 -24q0 -17 11.5 -29t29.5 -12q14 0 25 8.5t16 21.5l51 135h332l63 -165l86 25l-251 659q-10 26 -23.5 40t-43.5 14zM167 231l142 393l141 -393h-283z" />
<glyph unicode="&#xc2;" horiz-adv-x="618" d="M308 888q-5 0 -11 -2.5t-11 -4.5l-106 -42q-26 -10 -26 -38q0 -17 11.5 -28t27.5 -11q9 0 25 5.5t33.5 12.5t33 14.5t24.5 10.5q9 -4 24.5 -11t32 -14t32 -12.5t24.5 -5.5q17 0 29.5 12t12.5 29q0 28 -25 38l-108 40q-5 2 -11.5 4.5t-11.5 2.5zM306 728q-25 0 -39 -16.5 t-22 -37.5l-230 -619q-5 -13 -5 -24q0 -17 11.5 -29t29.5 -12q14 0 25 8.5t16 21.5l51 135h332l63 -165l86 25l-251 659q-10 26 -23.5 40t-43.5 14zM167 231l142 393l141 -393h-283z" />
<glyph unicode="&#xc3;" horiz-adv-x="618" d="M203 852q-17 0 -28.5 -11.5t-11.5 -28.5t12 -28.5t29 -11.5h210q17 0 29.5 11.5t12.5 28.5t-12 28.5t-29 11.5h-212zM167 231l142 393l141 -393h-283zM306 728q-25 0 -39 -16.5t-22 -37.5l-230 -619q-5 -13 -5 -24q0 -17 11.5 -29t29.5 -12q14 0 25 8.5t16 21.5l51 135 h332l63 -165l86 25l-251 659q-10 26 -23.5 40t-43.5 14z" />
<glyph unicode="&#xc4;" horiz-adv-x="618" d="M139 734q0 -22 15.5 -36t36.5 -14q20 0 35 15.5t15 35.5t-15 35.5t-35 15.5q-22 0 -37 -15t-15 -37zM376 733q0 -20 15 -34.5t35 -14.5q22 0 37 13.5t15 36.5q0 21 -15 36.5t-36 15.5q-23 0 -37 -15.5t-14 -37.5zM306 728q-25 0 -39 -16.5t-22 -37.5l-230 -619 q-5 -13 -5 -24q0 -17 11.5 -29t29.5 -12q14 0 25 8.5t16 21.5l51 135h332l63 -165l86 25l-251 659q-10 26 -23.5 40t-43.5 14zM167 231l142 393l141 -393h-283z" />
<glyph unicode="&#xc5;" horiz-adv-x="617" d="M281 722q-14 -7 -22.5 -20.5t-13.5 -27.5l-230 -619q-5 -13 -5 -24q0 -17 11.5 -29t29.5 -12q14 0 25 8.5t16 21.5l51 135h332l63 -165l86 25l-251 659q-5 14 -13 28t-24 20q26 8 42.5 29t16.5 50q0 18 -7 33t-19 26.5t-27.5 18t-32.5 6.5q-35 0 -60.5 -24.5t-25.5 -59.5 q0 -28 16 -49.5t42 -29.5zM271 802q0 16 11.5 26.5t27.5 10.5t27 -11t11 -27q0 -17 -11.5 -27.5t-27.5 -10.5t-27 11.5t-11 27.5zM167 231l142 393l141 -393h-283z" />
<glyph unicode="&#xc6;" horiz-adv-x="766" d="M-10 24l75 -34l86 164h234v-108q0 -20 12.5 -33t32.5 -13h260q16 0 28 11.5t12 28.5t-11.5 28t-28.5 11h-219v240h198q16 0 28 11.5t12 28.5q0 16 -10 28t-27 12h-199v242h210v79h-307q-22 0 -31 -9.5t-19 -28.5zM188 229l197 390v-390h-197z" />
<glyph unicode="&#xc7;" horiz-adv-x="596" d="M37 353q0 -67 18.5 -129t54.5 -111t89.5 -81.5t124.5 -39.5l-15.5 -15.5t-18.5 -20t-15.5 -21t-6.5 -19.5q0 -13 9.5 -21.5t22.5 -8.5q20 0 33 16l69 90q18 2 48 9.5t59 20t50.5 30t21.5 40.5q0 17 -11 30t-28 13q-11 0 -26 -10t-37 -22t-51 -22t-68 -10q-60 0 -104 25 t-72.5 66t-42 93t-13.5 105q0 51 13 102.5t40 93t69 67.5t101 26q29 0 51.5 -5.5t42 -15.5t37 -25.5t37.5 -34.5l50 45q-14 28 -37.5 50t-52.5 37t-60.5 23t-61.5 8q-81 0 -141 -31.5t-99.5 -84t-59.5 -121t-20 -141.5z" />
<glyph unicode="&#xc8;" horiz-adv-x="447" d="M334 800q0 13 -7.5 23.5t-19.5 15.5q-11 4 -33 13.5t-47 19.5t-47 17.5t-31 7.5q-17 0 -28 -10.5t-11 -27.5q0 -14 7.5 -24t19.5 -15q10 -4 32.5 -13.5t47.5 -19.5t46.5 -17.5t30.5 -7.5q17 0 28.5 10.5t11.5 27.5zM64 47q0 -20 11.5 -33.5t32.5 -13.5h323v79h-279v241 h198q17 0 28.5 11.5t11.5 28.5t-12 28t-29 11h-197v242h208q17 0 29 11.5t12 28.5q0 16 -12 27.5t-28 11.5h-252h-22t-22 2z" />
<glyph unicode="&#xc9;" horiz-adv-x="447" d="M296 897q-9 0 -30.5 -7.5t-46.5 -17.5t-47.5 -19.5t-32.5 -13.5q-12 -5 -19.5 -15.5t-7.5 -23.5q0 -17 12 -28t29 -11q9 0 30.5 7.5t46 17.5t47 19.5t32.5 13.5q12 5 19.5 15.5t7.5 23.5q0 17 -11.5 28t-28.5 11zM64 47q0 -20 11.5 -33.5t32.5 -13.5h323v79h-279v241h198 q17 0 28.5 11.5t11.5 28.5t-12 28t-29 11h-197v242h208q17 0 29 11.5t12 28.5q0 16 -12 27.5t-28 11.5h-252h-22t-22 2z" />
<glyph unicode="&#xca;" horiz-adv-x="447" d="M64 47q0 -20 11.5 -33.5t32.5 -13.5h263q16 0 28 11.5t12 27.5q0 17 -12 28.5t-29 11.5h-218v241h198q17 0 28.5 11.5t11.5 28.5t-12 28t-29 11h-197v242h208q17 0 29 11.5t12 28.5q0 16 -12 27.5t-28 11.5h-252q-19 0 -32 -13t-13 -32v-628zM222 888q-5 0 -11 -2.5 t-11 -4.5l-106 -42q-26 -10 -26 -38q0 -17 11.5 -28t27.5 -11q9 0 25 5.5t33.5 12.5t33 14.5t24.5 10.5q9 -4 24.5 -11t32 -14t32 -12.5t24.5 -5.5q17 0 29.5 12t12.5 29q0 28 -25 38l-108 40q-5 2 -11.5 4.5t-11.5 2.5z" />
<glyph unicode="&#xcb;" horiz-adv-x="447" d="M75 817q0 -23 16 -37.5t38 -14.5t37 16t15 37t-15.5 36.5t-36.5 15.5q-23 0 -38.5 -15t-15.5 -38zM267 817q0 -20 15 -36t36 -16q23 0 38.5 14.5t15.5 37.5t-15.5 38t-38.5 15q-22 0 -36.5 -16t-14.5 -37zM64 47q0 -20 11.5 -33.5t32.5 -13.5h323v79h-279v241h198 q17 0 28.5 11.5t11.5 28.5t-12 28t-29 11h-197v242h208q17 0 29 11.5t12 28.5q0 16 -12 27.5t-28 11.5h-252h-22t-22 2z" />
<glyph unicode="&#xcc;" horiz-adv-x="214" d="M218 800q0 13 -7.5 23.5t-19.5 15.5q-11 4 -33 13.5t-47 19.5t-47 17.5t-31 7.5q-17 0 -28 -10.5t-11 -27.5q0 -14 7.5 -24t19.5 -15q10 -4 32.5 -13.5t47.5 -19.5t46.5 -17.5t30.5 -7.5q17 0 28.5 10.5t11.5 27.5zM64 0h86v684q0 18 -12 31t-30 13t-31 -13t-13 -31v-684 z" />
<glyph unicode="&#xcd;" horiz-adv-x="214" d="M180 897q-9 0 -30.5 -7.5t-46.5 -17.5t-47.5 -19.5t-32.5 -13.5q-12 -5 -19.5 -15.5t-7.5 -23.5q0 -17 12 -28t29 -11q9 0 30.5 7.5t46 17.5t47 19.5t32.5 13.5q12 5 19.5 15.5t7.5 23.5q0 17 -11.5 28t-28.5 11zM64 0h86v684q0 18 -12 31t-30 13t-31 -13t-13 -31v-684z " />
<glyph unicode="&#xce;" horiz-adv-x="214" d="M106 888q-5 0 -11 -2.5t-11 -4.5l-106 -42q-26 -10 -26 -38q0 -17 11.5 -28t27.5 -11q9 0 25 5.5t33.5 12.5t33 14.5t24.5 10.5q9 -4 24.5 -11t32 -14t32 -12.5t24.5 -5.5q17 0 29.5 12t12.5 29q0 28 -25 38l-108 40q-5 2 -11.5 4.5t-11.5 2.5zM64 0h86v684q0 18 -12 31 t-30 13t-31 -13t-13 -31v-684z" />
<glyph unicode="&#xcf;" horiz-adv-x="214" d="M-41 817q0 -23 16 -37.5t38 -14.5t37 16t15 37t-15.5 36.5t-36.5 15.5q-23 0 -38.5 -15t-15.5 -38zM151 817q0 -20 15 -36t36 -16q23 0 38.5 14.5t15.5 37.5t-15.5 38t-38.5 15q-22 0 -36.5 -16t-14.5 -37zM64 0h86v684q0 18 -12 31t-30 13t-31 -13t-13 -31v-684z" />
<glyph unicode="&#xd0;" />
<glyph unicode="&#xd1;" horiz-adv-x="680" d="M234 852q-17 0 -28.5 -11.5t-11.5 -28.5t12 -28t29 -11l210 -1q17 0 29.5 11.5t12.5 28.5t-12 28.5t-29 11.5h-212zM64 1l86 -1v572l387 -563q13 -19 36 -19q18 0 30.5 12.5t12.5 30.5v651q0 18 -12.5 31.5t-31.5 13.5q-17 0 -29.5 -14t-12.5 -31l1 -536l-387 562 q-13 19 -36 19q-18 0 -31 -13t-13 -31v-684z" />
<glyph unicode="&#xd2;" horiz-adv-x="702" d="M37 361q0 -71 20 -137.5t59.5 -118t98.5 -83t136 -31.5t135.5 31t98.5 83t60 118t20 137q0 70 -20 136.5t-59.5 118t-98 83t-135.5 31.5t-136 -31t-99 -82t-60 -117.5t-20 -137.5zM462 800q0 13 -7.5 23.5t-19.5 15.5q-11 4 -33 13.5t-47 19.5t-47 17.5t-31 7.5 q-17 0 -28 -10.5t-11 -27.5q0 -14 7.5 -24t19.5 -15q10 -4 32.5 -13.5t47.5 -19.5t46.5 -17.5t30.5 -7.5q17 0 28.5 10.5t11.5 27.5zM132 360q0 50 11.5 102t37 94.5t67 69.5t100.5 27q63 0 105.5 -27t69 -70t37.5 -97t11 -108q0 -52 -12.5 -103t-39.5 -91.5t-69 -65.5 t-102 -25q-59 0 -100.5 27t-67 69.5t-37 95t-11.5 102.5z" />
<glyph unicode="&#xd3;" horiz-adv-x="702" d="M37 361q0 -71 20 -137.5t59.5 -118t98.5 -83t136 -31.5t135.5 31t98.5 83t60 118t20 137q0 70 -20 136.5t-59.5 118t-98 83t-135.5 31.5t-136 -31t-99 -82t-60 -117.5t-20 -137.5zM424 897q-9 0 -30.5 -7.5t-46.5 -17.5t-47.5 -19.5t-32.5 -13.5q-12 -5 -19.5 -15.5 t-7.5 -23.5q0 -17 12 -28t29 -11q9 0 30.5 7.5t46 17.5t47 19.5t32.5 13.5q12 5 19.5 15.5t7.5 23.5q0 17 -11.5 28t-28.5 11zM132 360q0 50 11.5 102t37 94.5t67 69.5t100.5 27q63 0 105.5 -27t69 -70t37.5 -97t11 -108q0 -52 -12.5 -103t-39.5 -91.5t-69 -65.5t-102 -25 q-59 0 -100.5 27t-67 69.5t-37 95t-11.5 102.5z" />
<glyph unicode="&#xd4;" horiz-adv-x="702" d="M37 361q0 -71 20 -137.5t59.5 -118t98.5 -83t136 -31.5t135.5 31t98.5 83t60 118t20 137q0 70 -20 136.5t-59.5 118t-98 83t-135.5 31.5t-136 -31t-99 -82t-60 -117.5t-20 -137.5zM350 888q-5 0 -11 -2.5t-11 -4.5l-106 -42q-26 -10 -26 -38q0 -17 11.5 -28t27.5 -11 q9 0 25 5.5t33.5 12.5t33 14.5t24.5 10.5q9 -4 24.5 -11t32 -14t32 -12.5t24.5 -5.5q17 0 29.5 12t12.5 29q0 28 -25 38l-108 40q-5 2 -11.5 4.5t-11.5 2.5zM132 360q0 50 11.5 102t37 94.5t67 69.5t100.5 27q63 0 105.5 -27t69 -70t37.5 -97t11 -108q0 -52 -12.5 -103 t-39.5 -91.5t-69 -65.5t-102 -25q-59 0 -100.5 27t-67 69.5t-37 95t-11.5 102.5z" />
<glyph unicode="&#xd5;" horiz-adv-x="702" d="M37 361q0 -71 20 -137.5t59.5 -118t98.5 -83t136 -31.5t135.5 31t98.5 83t60 118t20 137q0 70 -20 136.5t-59.5 118t-98 83t-135.5 31.5t-136 -31t-99 -82t-60 -117.5t-20 -137.5zM245 852q-17 0 -28.5 -11.5t-11.5 -28.5t12 -28t29 -11l210 -1q17 0 29.5 11.5t12.5 28.5 t-12 28.5t-29 11.5h-212zM132 360q0 50 11.5 102t37 94.5t67 69.5t100.5 27q63 0 105.5 -27t69 -70t37.5 -97t11 -108q0 -52 -12.5 -103t-39.5 -91.5t-69 -65.5t-102 -25q-59 0 -100.5 27t-67 69.5t-37 95t-11.5 102.5z" />
<glyph unicode="&#xd6;" horiz-adv-x="702" d="M37 361q0 -71 20 -137.5t59.5 -118t98.5 -83t136 -31.5t135.5 31t98.5 83t60 118t20 137q0 70 -20 136.5t-59.5 118t-98 83t-135.5 31.5t-136 -31t-99 -82t-60 -117.5t-20 -137.5zM65 741q0 -21 13.5 -36.5t35.5 -15.5q21 0 36 15t15 35q0 21 -15 36t-35 15 q-21 0 -35.5 -14.5t-14.5 -34.5zM537 738q0 -20 15.5 -34.5t35.5 -14.5q21 0 35.5 15.5t14.5 36.5q0 20 -14.5 35t-35.5 15q-23 0 -37 -15.5t-14 -37.5zM132 360q0 50 11.5 102t37 94.5t67 69.5t100.5 27q63 0 105.5 -27t69 -70t37.5 -97t11 -108q0 -52 -12.5 -103 t-39.5 -91.5t-69 -65.5t-102 -25q-59 0 -100.5 27t-67 69.5t-37 95t-11.5 102.5z" />
<glyph unicode="&#xd7;" />
<glyph unicode="&#xd8;" horiz-adv-x="703" d="M560 645q-43 42 -97.5 63.5t-114.5 21.5q-77 0 -135 -31.5t-97 -83.5t-59 -118.5t-20 -136.5q0 -68 16.5 -128t56.5 -116l-85 -103l42 -40l82 99q39 -41 90.5 -61.5t108.5 -20.5q76 0 135.5 31t99.5 82t61 117t21 137q0 66 -15.5 127t-50.5 117q6 7 19 21t26 30t23 30.5 t10 23.5q0 12 -8 20.5t-20 8.5q-9 0 -21.5 -11.5t-25.5 -26.5t-24.5 -30t-17.5 -22zM505 581l-335 -396q-22 42 -30.5 83t-8.5 88q0 50 11.5 102.5t37 95t66.5 70t101 27.5q45 0 86.5 -17.5t71.5 -52.5zM203 134l335 397q18 -44 25.5 -88t7.5 -92q0 -50 -12 -100.5 t-38 -90.5t-67 -65t-99 -25q-44 0 -83 16t-69 48z" />
<glyph unicode="&#xd9;" horiz-adv-x="683" d="M452 800q0 13 -7.5 23.5t-19.5 15.5q-11 4 -33 13.5t-47 19.5t-47 17.5t-31 7.5q-17 0 -28 -10.5t-11 -27.5q0 -14 7.5 -24t19.5 -15q10 -4 32.5 -13.5t47.5 -19.5t46.5 -17.5t30.5 -7.5q17 0 28.5 10.5t11.5 27.5zM64 255q0 -61 21 -110t58.5 -83.5t88 -53t110.5 -18.5 q59 0 110 18.5t88 53t58 83.5t21 110v428q0 18 -13 31t-30 13q-19 0 -31 -13t-12 -31v-429q0 -43 -14 -78t-39 -59.5t-60.5 -38t-77.5 -13.5q-43 0 -78.5 13.5t-60.5 38t-39 59.5t-14 78v469h-86v-468z" />
<glyph unicode="&#xda;" horiz-adv-x="683" d="M414 897q-9 0 -30.5 -7.5t-46.5 -17.5t-47.5 -19.5t-32.5 -13.5q-12 -5 -19.5 -15.5t-7.5 -23.5q0 -17 12 -28t29 -11q9 0 30.5 7.5t46 17.5t47 19.5t32.5 13.5q12 5 19.5 15.5t7.5 23.5q0 17 -11.5 28t-28.5 11zM64 255q0 -61 21 -110t58.5 -83.5t88 -53t110.5 -18.5 q59 0 110 18.5t88 53t58 83.5t21 110v428q0 18 -13 31t-30 13q-19 0 -31 -13t-12 -31v-429q0 -43 -14 -78t-39 -59.5t-60.5 -38t-77.5 -13.5q-43 0 -78.5 13.5t-60.5 38t-39 59.5t-14 78v469h-86v-468z" />
<glyph unicode="&#xdb;" horiz-adv-x="683" d="M340 888q-5 0 -11 -2.5t-11 -4.5l-106 -42q-26 -10 -26 -38q0 -17 11.5 -28t27.5 -11q9 0 25 5.5t33.5 12.5t33 14.5t24.5 10.5q9 -4 24.5 -11t32 -14t32 -12.5t24.5 -5.5q17 0 29.5 12t12.5 29q0 28 -25 38l-108 40q-5 2 -11.5 4.5t-11.5 2.5zM64 255q0 -61 21 -110 t58.5 -83.5t88 -53t110.5 -18.5q59 0 110 18.5t88 53t58 83.5t21 110v428q0 18 -13 31t-30 13q-19 0 -31 -13t-12 -31v-429q0 -43 -14 -78t-39 -59.5t-60.5 -38t-77.5 -13.5q-43 0 -78.5 13.5t-60.5 38t-39 59.5t-14 78v469h-86v-468z" />
<glyph unicode="&#xdc;" horiz-adv-x="683" d="M211 736q0 -22 13.5 -37t36.5 -15q21 0 36 15t15 37q0 20 -14.5 35.5t-35.5 15.5t-36 -15t-15 -36zM371 735q0 -20 15 -35.5t35 -15.5q21 0 36 15t15 36t-15 36t-36 15q-22 0 -36 -15t-14 -36zM64 255q0 -61 21 -110t58.5 -83.5t88 -53t110.5 -18.5q59 0 110 18.5t88 53 t58 83.5t21 110v428q0 18 -13 31t-30 13q-19 0 -31 -13t-12 -31v-429q0 -43 -14 -78t-39 -59.5t-60.5 -38t-77.5 -13.5q-43 0 -78.5 13.5t-60.5 38t-39 59.5t-14 78v469h-86v-468z" />
<glyph unicode="&#xdd;" />
<glyph unicode="&#xde;" />
<glyph unicode="&#xdf;" horiz-adv-x="559" d="M64 553v-765h84v777q0 28 7 52.5t21 43t36.5 29t52.5 10.5q27 0 47 -11.5t33.5 -30t20.5 -42t7 -47.5q0 -51 -21.5 -79t-71.5 -41q-11 -10 -17 -14.5t-6 -21.5t12.5 -24t31 -11.5t40.5 -11t40.5 -22t31 -43.5t12.5 -77q0 -53 -12 -81.5t-30.5 -42.5t-39.5 -18.5t-39.5 -8 t-30.5 -11t-12 -27.5q0 -12 6 -21t16 -14t21 -7.5t22 -2.5q46 0 81 21t59 55t36.5 75.5t12.5 82.5q0 33 -8.5 64.5t-25 58.5t-41.5 47.5t-58 30.5q38 24 57 65t19 86q0 42 -13.5 78.5t-38.5 64t-60.5 43t-78.5 15.5q-51 0 -89.5 -16.5t-63.5 -46.5t-37.5 -71t-12.5 -90z" />
<glyph unicode="&#xe0;" horiz-adv-x="567" d="M394 614q0 13 -7.5 23.5t-19.5 15.5q-11 4 -33 13.5t-47 19.5t-47 17.5t-31 7.5q-17 0 -28 -10.5t-11 -27.5q0 -14 7.5 -24t19.5 -15q10 -4 32.5 -13.5t47.5 -19.5t46.5 -17.5t30.5 -7.5q17 0 28.5 10.5t11.5 27.5zM419 471q-28 35 -67.5 53t-83.5 18q-56 0 -99 -24 t-72.5 -62.5t-45 -87.5t-15.5 -100q0 -52 15 -101.5t44 -88.5t72.5 -63t100.5 -24q47 0 86.5 20.5t63.5 61.5v-77h85v504q0 16 -11.5 29t-28.5 13q-18 0 -27 -6.5t-12.5 -16.5t-4 -22.5t-0.5 -25.5zM126 269q0 35 8.5 70.5t26.5 64.5t47 47t70 18q42 0 69.5 -17.5t44 -45 t23 -62.5t6.5 -69q0 -38 -6 -75.5t-22.5 -67.5t-45.5 -49t-74 -19q-41 0 -69.5 19t-45.5 48.5t-24.5 66t-7.5 71.5z" />
<glyph unicode="&#xe1;" horiz-adv-x="567" d="M356 711q-9 0 -30.5 -7.5t-46.5 -17.5t-47.5 -19.5t-32.5 -13.5q-12 -5 -19.5 -15.5t-7.5 -23.5q0 -17 12 -28t29 -11q9 0 30.5 7.5t46 17.5t47 19.5t32.5 13.5q12 5 19.5 15.5t7.5 23.5q0 17 -11.5 28t-28.5 11zM419 471q-28 35 -67.5 53t-83.5 18q-56 0 -99 -24 t-72.5 -62.5t-45 -87.5t-15.5 -100q0 -52 15 -101.5t44 -88.5t72.5 -63t100.5 -24q47 0 86.5 20.5t63.5 61.5v-77h85v504q0 16 -11.5 29t-28.5 13q-18 0 -27 -6.5t-12.5 -16.5t-4 -22.5t-0.5 -25.5zM126 269q0 35 8.5 70.5t26.5 64.5t47 47t70 18q42 0 69.5 -17.5t44 -45 t23 -62.5t6.5 -69q0 -38 -6 -75.5t-22.5 -67.5t-45.5 -49t-74 -19q-41 0 -69.5 19t-45.5 48.5t-24.5 66t-7.5 71.5z" />
<glyph unicode="&#xe2;" horiz-adv-x="567" d="M282 702q-5 0 -11 -2.5t-11 -4.5l-106 -42q-26 -10 -26 -38q0 -17 11.5 -28t27.5 -11q9 0 25 5.5t33.5 12.5t33 14.5t24.5 10.5q9 -4 24.5 -11t32 -14t32 -12.5t24.5 -5.5q17 0 29.5 12t12.5 29q0 28 -25 38l-108 40q-5 2 -11.5 4.5t-11.5 2.5zM419 471q-28 35 -67.5 53 t-83.5 18q-56 0 -99 -24t-72.5 -62.5t-45 -87.5t-15.5 -100q0 -52 15 -101.5t44 -88.5t72.5 -63t100.5 -24q47 0 86.5 20.5t63.5 61.5v-77h85v504q0 16 -11.5 29t-28.5 13q-18 0 -27 -6.5t-12.5 -16.5t-4 -22.5t-0.5 -25.5zM126 269q0 35 8.5 70.5t26.5 64.5t47 47t70 18 q42 0 69.5 -17.5t44 -45t23 -62.5t6.5 -69q0 -38 -6 -75.5t-22.5 -67.5t-45.5 -49t-74 -19q-41 0 -69.5 19t-45.5 48.5t-24.5 66t-7.5 71.5z" />
<glyph unicode="&#xe3;" horiz-adv-x="567" d="M177 666q-17 0 -28.5 -11.5t-11.5 -28.5t12 -28t29 -11l210 -1q17 0 29.5 11.5t12.5 28.5t-12 28.5t-29 11.5h-212zM419 471q-28 35 -67.5 53t-83.5 18q-56 0 -99 -24t-72.5 -62.5t-45 -87.5t-15.5 -100q0 -52 15 -101.5t44 -88.5t72.5 -63t100.5 -24q47 0 86.5 20.5 t63.5 61.5v-77h85v504q0 16 -11.5 29t-28.5 13q-18 0 -27 -6.5t-12.5 -16.5t-4 -22.5t-0.5 -25.5zM126 269q0 35 8.5 70.5t26.5 64.5t47 47t70 18q42 0 69.5 -17.5t44 -45t23 -62.5t6.5 -69q0 -38 -6 -75.5t-22.5 -67.5t-45.5 -49t-74 -19q-41 0 -69.5 19t-45.5 48.5 t-24.5 66t-7.5 71.5z" />
<glyph unicode="&#xe4;" horiz-adv-x="567" d="M141 654q0 -23 15 -39t38 -16t38 15.5t15 37.5t-15 38t-38 16q-21 0 -37 -15t-16 -37zM331 653q0 -23 15 -38.5t38 -15.5t38 15.5t15 37.5q0 23 -15.5 38.5t-37.5 15.5t-37.5 -15.5t-15.5 -37.5zM419 471q-28 35 -67.5 53t-83.5 18q-56 0 -99 -24t-72.5 -62.5t-45 -87.5 t-15.5 -100q0 -52 15 -101.5t44 -88.5t72.5 -63t100.5 -24q47 0 86.5 20.5t63.5 61.5v-77h85v504q0 16 -11.5 29t-28.5 13q-18 0 -27 -6.5t-12.5 -16.5t-4 -22.5t-0.5 -25.5zM126 269q0 35 8.5 70.5t26.5 64.5t47 47t70 18q42 0 69.5 -17.5t44 -45t23 -62.5t6.5 -69 q0 -38 -6 -75.5t-22.5 -67.5t-45.5 -49t-74 -19q-41 0 -69.5 19t-45.5 48.5t-24.5 66t-7.5 71.5z" />
<glyph unicode="&#xe5;" horiz-adv-x="567" d="M196 661q0 -16 6.5 -30t17.5 -24.5t25.5 -16.5t30.5 -6t31 5.5t26.5 16t18.5 25t7 31.5q0 16 -6.5 30.5t-18 25t-26 16.5t-30.5 6q-34 0 -58 -22t-24 -57zM241 662q0 16 10.5 25.5t25.5 9.5t26 -10t11 -26q0 -14 -11 -25t-26 -11t-25.5 11.5t-10.5 25.5zM419 471 q-28 35 -67.5 53t-83.5 18q-56 0 -99 -24t-72.5 -62.5t-45 -87.5t-15.5 -100q0 -52 15 -101.5t44 -88.5t72.5 -63t100.5 -24q47 0 86.5 20.5t63.5 61.5v-77h85v504q0 16 -11.5 29t-28.5 13q-18 0 -27 -6.5t-12.5 -16.5t-4 -22.5t-0.5 -25.5zM126 269q0 35 8.5 70.5 t26.5 64.5t47 47t70 18q42 0 69.5 -17.5t44 -45t23 -62.5t6.5 -69q0 -38 -6 -75.5t-22.5 -67.5t-45.5 -49t-74 -19q-41 0 -69.5 19t-45.5 48.5t-24.5 66t-7.5 71.5z" />
<glyph unicode="&#xe6;" horiz-adv-x="905" d="M418 466q-26 37 -67 55.5t-85 18.5q-57 0 -100 -24.5t-71.5 -64t-43 -89.5t-14.5 -101t15 -99t44.5 -86t72 -61t97.5 -23q46 0 88 21t65 63v-77h78v66q30 -39 72 -56t91 -17q22 0 37 2.5t28 6.5t26.5 9.5t33.5 11.5l-26 71q-22 -11 -46 -18t-49 -7q-35 0 -65 13t-52 36 t-34.5 53.5t-12.5 65.5h325q7 0 13.5 -0.5t13.5 -0.5q17 6 20.5 18t3.5 28q0 46 -16 92.5t-45 83.5t-70 60.5t-91 23.5q-45 0 -87.5 -20t-70.5 -55q0 12 0.5 25.5t-2.5 25t-11 19t-25 7.5t-25.5 -7.5t-11.5 -19t-3 -25.5v-25zM277 72q-41 0 -70 17t-47 44t-26.5 61.5 t-8.5 70.5q0 33 8 68t25.5 63.5t44.5 47t66 18.5q41 0 69.5 -16t46.5 -43t26 -61t8 -70q0 -34 -7 -69.5t-23.5 -64.5t-44 -47.5t-67.5 -18.5zM500 299v20q0 30 12 56.5t32 47t46.5 32t56.5 11.5q36 0 61 -15t41.5 -38.5t26 -53.5t14.5 -60h-290z" />
<glyph unicode="&#xe7;" horiz-adv-x="449" d="M37 265q0 -47 12 -91.5t36.5 -81.5t61.5 -62.5t86 -33.5q-4 -6 -14 -20t-20 -29t-18 -29t-8 -21q0 -13 9 -22t22 -9q9 0 19 4.5t15 12.5l70 111q14 1 33.5 5t37 12t30 20.5t12.5 31.5q0 15 -11.5 26.5t-27.5 11.5q-9 0 -21 -5t-26 -10.5t-29 -10.5t-30 -5q-38 0 -65.5 19 t-46 48t-27.5 64.5t-9 67.5q0 35 9 70t27.5 62.5t47.5 45t70 17.5q31 0 59.5 -13t54.5 -27l41 70q-20 11 -38 20t-36 15t-37.5 9.5t-43.5 3.5q-59 0 -104.5 -22.5t-77 -61t-47.5 -88.5t-16 -105z" />
<glyph unicode="&#xe8;" horiz-adv-x="538" d="M380 614q0 13 -7.5 23.5t-19.5 15.5q-11 4 -33 13.5t-47 19.5t-47 17.5t-31 7.5q-17 0 -28 -10.5t-11 -27.5q0 -14 7.5 -24t19.5 -15q10 -4 32.5 -13.5t47.5 -19.5t46.5 -17.5t30.5 -7.5q17 0 28.5 10.5t11.5 27.5zM131 233h324q27 0 40 9t13 38q0 49 -16 96t-45.5 83.5 t-72 59t-95.5 22.5q-56 0 -100.5 -23t-76 -61t-48.5 -87.5t-17 -101.5q0 -56 16.5 -106.5t48.5 -88.5t78 -60.5t106 -22.5q37 0 67.5 8.5t64.5 22.5l-19 67q-26 -8 -54 -14.5t-56 -6.5q-34 0 -63 13.5t-50 36t-33 53t-12 63.5zM129 299q4 31 14 62t27 55t43 39t64 15 q33 0 59 -15.5t44 -40t28 -55t11 -60.5h-290z" />
<glyph unicode="&#xe9;" horiz-adv-x="538" d="M342 711q-9 0 -30.5 -7.5t-46.5 -17.5t-47.5 -19.5t-32.5 -13.5q-12 -5 -19.5 -15.5t-7.5 -23.5q0 -17 12 -28t29 -11q9 0 30.5 7.5t46 17.5t47 19.5t32.5 13.5q12 5 19.5 15.5t7.5 23.5q0 17 -11.5 28t-28.5 11zM131 233h324q27 0 40 9t13 38q0 49 -16 96t-45.5 83.5 t-72 59t-95.5 22.5q-56 0 -100.5 -23t-76 -61t-48.5 -87.5t-17 -101.5q0 -56 16.5 -106.5t48.5 -88.5t78 -60.5t106 -22.5q37 0 67.5 8.5t64.5 22.5l-19 67q-26 -8 -54 -14.5t-56 -6.5q-34 0 -63 13.5t-50 36t-33 53t-12 63.5zM129 299q4 31 14 62t27 55t43 39t64 15 q33 0 59 -15.5t44 -40t28 -55t11 -60.5h-290z" />
<glyph unicode="&#xea;" horiz-adv-x="538" d="M268 702q-5 0 -11 -2.5t-11 -4.5l-106 -42q-26 -10 -26 -38q0 -17 11.5 -28t27.5 -11q9 0 25 5.5t33.5 12.5t33 14.5t24.5 10.5q9 -4 24.5 -11t32 -14t32 -12.5t24.5 -5.5q17 0 29.5 12t12.5 29q0 28 -25 38l-108 40q-5 2 -11.5 4.5t-11.5 2.5zM131 233h324q27 0 40 9 t13 38q0 49 -16 96t-45.5 83.5t-72 59t-95.5 22.5q-56 0 -100.5 -23t-76 -61t-48.5 -87.5t-17 -101.5q0 -56 16.5 -106.5t48.5 -88.5t78 -60.5t106 -22.5q37 0 67.5 8.5t64.5 22.5l-19 67q-26 -8 -54 -14.5t-56 -6.5q-34 0 -63 13.5t-50 36t-33 53t-12 63.5zM129 299 q4 31 14 62t27 55t43 39t64 15q33 0 59 -15.5t44 -40t28 -55t11 -60.5h-290z" />
<glyph unicode="&#xeb;" horiz-adv-x="538" d="M121 631q0 -23 16 -37.5t38 -14.5t37 16t15 37t-15.5 36.5t-36.5 15.5q-23 0 -38.5 -15t-15.5 -38zM313 631q0 -20 15 -36t36 -16q23 0 38.5 14.5t15.5 37.5t-15.5 38t-38.5 15q-22 0 -36.5 -16t-14.5 -37zM131 233h324q27 0 40 9t13 38q0 49 -16 96t-45.5 83.5t-72 59 t-95.5 22.5q-56 0 -100.5 -23t-76 -61t-48.5 -87.5t-17 -101.5q0 -56 16.5 -106.5t48.5 -88.5t78 -60.5t106 -22.5q37 0 67.5 8.5t64.5 22.5l-19 67q-26 -8 -54 -14.5t-56 -6.5q-34 0 -63 13.5t-50 36t-33 53t-12 63.5zM129 299q4 31 14 62t27 55t43 39t64 15q33 0 59 -15.5 t44 -40t28 -55t11 -60.5h-290z" />
<glyph unicode="&#xec;" horiz-adv-x="190" d="M206 614q0 13 -7.5 23.5t-19.5 15.5q-11 4 -33 13.5t-47 19.5t-47 17.5t-31 7.5q-17 0 -28 -10.5t-11 -27.5q0 -14 7.5 -24t19.5 -15q10 -4 32.5 -13.5t47.5 -19.5t46.5 -17.5t30.5 -7.5q17 0 28.5 10.5t11.5 27.5zM65 -1h84v501q0 16 -11.5 29t-28.5 13q-18 0 -31 -11.5 t-13 -30.5v-501z" />
<glyph unicode="&#xed;" horiz-adv-x="190" d="M168 711q-9 0 -30.5 -7.5t-46.5 -17.5t-47.5 -19.5t-32.5 -13.5q-12 -5 -19.5 -15.5t-7.5 -23.5q0 -17 12 -28t29 -11q9 0 30.5 7.5t46 17.5t47 19.5t32.5 13.5q12 5 19.5 15.5t7.5 23.5q0 17 -11.5 28t-28.5 11zM65 -1h84v501q0 16 -11.5 29t-28.5 13q-18 0 -31 -11.5 t-13 -30.5v-501z" />
<glyph unicode="&#xee;" horiz-adv-x="190" d="M94 702q-5 0 -11 -2.5t-11 -4.5l-106 -42q-26 -10 -26 -38q0 -17 11.5 -28t27.5 -11q9 0 25 5.5t33.5 12.5t33 14.5t24.5 10.5q9 -4 24.5 -11t32 -14t32 -12.5t24.5 -5.5q17 0 29.5 12t12.5 29q0 28 -25 38l-108 40q-5 2 -11.5 4.5t-11.5 2.5zM65 -1h84v501 q0 16 -11.5 29t-28.5 13q-18 0 -31 -11.5t-13 -30.5v-501z" />
<glyph unicode="&#xef;" horiz-adv-x="190" d="M-53 631q0 -23 16 -37.5t38 -14.5t37 16t15 37t-15.5 36.5t-36.5 15.5q-23 0 -38.5 -15t-15.5 -38zM139 631q0 -20 15 -36t36 -16q23 0 38.5 14.5t15.5 37.5t-15.5 38t-38.5 15q-22 0 -36.5 -16t-14.5 -37zM65 -1h84v501q0 16 -11.5 29t-28.5 13q-18 0 -31 -11.5 t-13 -30.5v-501z" />
<glyph unicode="&#xf0;" />
<glyph unicode="&#xf1;" horiz-adv-x="548" d="M168 666q-17 0 -28.5 -11.5t-11.5 -28.5t12 -28t29 -11l210 -1q17 0 29.5 11.5t12.5 28.5t-12 28.5t-29 11.5h-212zM64 -1h84v341q0 26 9.5 49t26.5 40.5t40 27.5t49 10t49 -10.5t40.5 -28t27.5 -41t10 -49.5v-307q0 -17 12 -29.5t29 -12.5q18 0 30.5 12.5t12.5 30.5v307 q0 44 -13.5 81t-39 64t-61.5 42t-81 15q-41 0 -79.5 -18t-61.5 -52v24t-3.5 23.5t-12 17.5t-24.5 7q-18 0 -31 -12.5t-13 -30.5v-501z" />
<glyph unicode="&#xf2;" horiz-adv-x="547" d="M37 268q0 -52 15.5 -102t46 -89.5t74.5 -63.5t101 -24q56 0 100 24t74 63.5t45.5 89.5t15.5 101q0 52 -16 101.5t-46 88t-74 62t-100 23.5t-100 -23.5t-74 -62t-46 -88t-16 -100.5zM384 614q0 13 -7.5 23.5t-19.5 15.5q-11 4 -33 13.5t-47 19.5t-47 17.5t-31 7.5 q-17 0 -28 -10.5t-11 -27.5q0 -14 7.5 -24t19.5 -15q10 -4 32.5 -13.5t47.5 -19.5t46.5 -17.5t30.5 -7.5q17 0 28.5 10.5t11.5 27.5zM127 267q0 33 8 68t25.5 64.5t45 48.5t66.5 19q40 0 68 -18.5t46 -47t26 -64t8 -69.5q0 -35 -8 -71t-25.5 -65.5t-46 -48t-69.5 -18.5 q-39 0 -66.5 19t-44.5 49t-25 65.5t-8 68.5z" />
<glyph unicode="&#xf3;" horiz-adv-x="547" d="M37 268q0 -52 15.5 -102t46 -89.5t74.5 -63.5t101 -24q56 0 100 24t74 63.5t45.5 89.5t15.5 101q0 52 -16 101.5t-46 88t-74 62t-100 23.5t-100 -23.5t-74 -62t-46 -88t-16 -100.5zM346 711q-9 0 -30.5 -7.5t-46.5 -17.5t-47.5 -19.5t-32.5 -13.5q-12 -5 -19.5 -15.5 t-7.5 -23.5q0 -17 12 -28t29 -11q9 0 30.5 7.5t46 17.5t47 19.5t32.5 13.5q12 5 19.5 15.5t7.5 23.5q0 17 -11.5 28t-28.5 11zM127 267q0 33 8 68t25.5 64.5t45 48.5t66.5 19q40 0 68 -18.5t46 -47t26 -64t8 -69.5q0 -35 -8 -71t-25.5 -65.5t-46 -48t-69.5 -18.5 q-39 0 -66.5 19t-44.5 49t-25 65.5t-8 68.5z" />
<glyph unicode="&#xf4;" horiz-adv-x="547" d="M37 268q0 -52 15.5 -102t46 -89.5t74.5 -63.5t101 -24q56 0 100 24t74 63.5t45.5 89.5t15.5 101q0 52 -16 101.5t-46 88t-74 62t-100 23.5t-100 -23.5t-74 -62t-46 -88t-16 -100.5zM272 702q-5 0 -11 -2.5t-11 -4.5l-106 -42q-26 -10 -26 -38q0 -17 11.5 -28t27.5 -11 q9 0 25 5.5t33.5 12.5t33 14.5t24.5 10.5q9 -4 24.5 -11t32 -14t32 -12.5t24.5 -5.5q17 0 29.5 12t12.5 29q0 28 -25 38l-108 40q-5 2 -11.5 4.5t-11.5 2.5zM127 267q0 33 8 68t25.5 64.5t45 48.5t66.5 19q40 0 68 -18.5t46 -47t26 -64t8 -69.5q0 -35 -8 -71t-25.5 -65.5 t-46 -48t-69.5 -18.5q-39 0 -66.5 19t-44.5 49t-25 65.5t-8 68.5z" />
<glyph unicode="&#xf5;" horiz-adv-x="547" d="M37 268q0 -52 15.5 -102t46 -89.5t74.5 -63.5t101 -24q56 0 100 24t74 63.5t45.5 89.5t15.5 101q0 52 -16 101.5t-46 88t-74 62t-100 23.5t-100 -23.5t-74 -62t-46 -88t-16 -100.5zM167 666q-17 0 -28.5 -11.5t-11.5 -28.5t12 -28t29 -11l210 -1q17 0 29.5 11.5 t12.5 28.5t-12 28.5t-29 11.5h-212zM127 267q0 33 8 68t25.5 64.5t45 48.5t66.5 19q40 0 68 -18.5t46 -47t26 -64t8 -69.5q0 -35 -8 -71t-25.5 -65.5t-46 -48t-69.5 -18.5q-39 0 -66.5 19t-44.5 49t-25 65.5t-8 68.5z" />
<glyph unicode="&#xf6;" horiz-adv-x="547" d="M37 268q0 -52 15.5 -102t46 -89.5t74.5 -63.5t101 -24q56 0 100 24t74 63.5t45.5 89.5t15.5 101q0 52 -16 101.5t-46 88t-74 62t-100 23.5t-100 -23.5t-74 -62t-46 -88t-16 -100.5zM126 657q0 -22 15 -37t37 -15t37.5 15t15.5 37t-16 37.5t-38 15.5q-23 0 -37 -15.5 t-14 -37.5zM317 657q0 -22 14.5 -37t36.5 -15t37.5 15.5t15.5 37.5t-15 37t-36 15q-22 0 -37.5 -15.5t-15.5 -37.5zM127 266q0 33 8 68.5t25 65t45 48.5t67 19q40 0 68.5 -18.5t46 -48t25.5 -65t8 -69.5q0 -35 -8 -70.5t-26 -64.5t-46.5 -47.5t-68.5 -18.5q-39 0 -66.5 19 t-44.5 48.5t-25 65t-8 68.5z" />
<glyph unicode="&#xf7;" horiz-adv-x="618" d="M275 158q-24 0 -40.5 -16.5t-16.5 -40.5t16.5 -40.5t40.5 -16.5q23 0 39.5 17t16.5 40q0 25 -15.5 41t-40.5 16zM506 270h-463v-68h463v68zM275 427q-24 0 -40.5 -16.5t-16.5 -40.5t16.5 -40.5t40.5 -16.5q23 0 39.5 17t16.5 40t-16.5 40t-39.5 17z" />
<glyph unicode="&#xf8;" horiz-adv-x="546" d="M21 -8l39 -33l69 88q29 -29 66 -43t76 -14q56 0 100.5 23t75 61.5t46.5 87.5t16 101q0 49 -13 94.5t-40 86.5q5 6 15.5 18t21 25.5t18.5 26t8 20.5q0 13 -8.5 20.5t-20.5 7.5q-8 0 -18.5 -9t-20.5 -20.5t-18.5 -23.5t-13.5 -18q-32 24 -69.5 37.5t-77.5 13.5 q-56 0 -99.5 -23.5t-73.5 -62.5t-46 -88t-16 -100q0 -97 51 -180zM365 427l-217 -268q-21 49 -21 104q0 34 7.5 70t25 66t45.5 49t69 19q26 0 50 -10t41 -30zM179 105l219 270q12 -27 16.5 -55t4.5 -57q0 -34 -8.5 -69t-26.5 -63t-46 -46t-67 -18q-26 0 -50 9.5t-42 28.5z " />
<glyph unicode="&#xf9;" horiz-adv-x="550" d="M386 614q0 13 -7.5 23.5t-19.5 15.5q-11 4 -33 13.5t-47 19.5t-47 17.5t-31 7.5q-17 0 -28 -10.5t-11 -27.5q0 -14 7.5 -24t19.5 -15q10 -4 32.5 -13.5t47.5 -19.5t46.5 -17.5t30.5 -7.5q17 0 28.5 10.5t11.5 27.5zM64 198q0 -102 55 -154.5t156 -52.5t156 52.5t55 154.5 v300q0 18 -12 31t-30 13q-17 0 -29.5 -13t-12.5 -30v-299q0 -63 -30.5 -98.5t-96.5 -35.5t-96 35.5t-30 98.5v323l-85 -1v-324z" />
<glyph unicode="&#xfa;" horiz-adv-x="550" d="M348 711q-9 0 -30.5 -7.5t-46.5 -17.5t-47.5 -19.5t-32.5 -13.5q-12 -5 -19.5 -15.5t-7.5 -23.5q0 -17 12 -28t29 -11q9 0 30.5 7.5t46 17.5t47 19.5t32.5 13.5q12 5 19.5 15.5t7.5 23.5q0 17 -11.5 28t-28.5 11zM64 198q0 -102 55 -154.5t156 -52.5t156 52.5t55 154.5 v300q0 18 -12 31t-30 13q-17 0 -29.5 -13t-12.5 -30v-299q0 -63 -30.5 -98.5t-96.5 -35.5t-96 35.5t-30 98.5v323l-85 -1v-324z" />
<glyph unicode="&#xfb;" horiz-adv-x="550" d="M274 702q-5 0 -11 -2.5t-11 -4.5l-106 -42q-26 -10 -26 -38q0 -17 11.5 -28t27.5 -11q9 0 25 5.5t33.5 12.5t33 14.5t24.5 10.5q9 -4 24.5 -11t32 -14t32 -12.5t24.5 -5.5q17 0 29.5 12t12.5 29q0 28 -25 38l-108 40q-5 2 -11.5 4.5t-11.5 2.5zM64 198q0 -102 55 -154.5 t156 -52.5t156 52.5t55 154.5v300q0 18 -12 31t-30 13q-17 0 -29.5 -13t-12.5 -30v-299q0 -63 -30.5 -98.5t-96.5 -35.5t-96 35.5t-30 98.5v323l-85 -1v-324z" />
<glyph unicode="&#xfc;" horiz-adv-x="550" d="M128 657q0 -22 15.5 -36.5t36.5 -14.5q22 0 37.5 15.5t15.5 36.5q0 23 -15.5 38t-37.5 15q-23 0 -37.5 -15.5t-14.5 -38.5zM318 658q0 -22 15 -37t37 -15q23 0 38 15t15 37q0 23 -15 38t-37 15t-37.5 -15.5t-15.5 -37.5zM64 198q0 -102 55 -154.5t156 -52.5t156 52.5 t55 154.5v300q0 18 -12 31t-30 13q-17 0 -29.5 -13t-12.5 -30v-299q0 -63 -30.5 -98.5t-96.5 -35.5t-96 35.5t-30 98.5v323l-85 -1v-324z" />
<glyph unicode="&#xfd;" />
<glyph unicode="&#xfe;" />
<glyph unicode="&#xff;" horiz-adv-x="433" d="M68 631q0 -23 16 -37.5t38 -14.5t37 16t15 37t-15.5 36.5t-36.5 15.5q-23 0 -38.5 -15t-15.5 -38zM260 631q0 -20 15 -36t36 -16q23 0 38.5 14.5t15.5 37.5t-15.5 38t-38.5 15q-22 0 -36.5 -16t-14.5 -37zM2 508l172 -491q-5 -12 -16.5 -41t-23.5 -60.5t-21.5 -59.5 t-9.5 -37q0 -18 13 -29t30 -11t26.5 11.5t14.5 25.5q4 12 16.5 47l30 84t38.5 108t42 118.5t41 116.5t35.5 102t24.5 74.5t9 34.5q0 17 -13 29t-30 12q-16 0 -26 -10.5t-15 -24.5l-122 -374l-134 401z" />
<glyph unicode="&#x152;" horiz-adv-x="945" d="M569 614q-17 29 -41 51t-52.5 36.5t-60.5 22t-65 7.5q-81 0 -140 -32.5t-97.5 -86t-57 -122.5t-18.5 -141q0 -69 20.5 -133.5t60.5 -114.5t98 -80t132 -30q67 0 126.5 30.5t93.5 89.5v-76q0 -17 12 -26t28 -9h259q17 0 29 11t12 28t-11.5 28t-28.5 11h-219v242h198 q17 0 29.5 11.5t12.5 28.5t-12 28t-29 11h-198v242h209q17 0 28.5 11t11.5 28t-12 28.5t-29 11.5h-247q-22 0 -31 -11t-11.5 -27.5t-1 -35t1.5 -32.5zM129 359q0 52 12 103.5t39 93t69 67.5t102 26q58 0 99 -26.5t67 -68t38 -93t12 -101.5q0 -53 -11.5 -104.5t-37.5 -92 t-68.5 -65.5t-103.5 -25q-59 0 -100 25.5t-67 66.5t-38 92t-12 102z" />
<glyph unicode="&#x153;" horiz-adv-x="914" d="M463 428q-13 26 -33.5 47t-46 36t-54 23t-57.5 8q-56 0 -100 -23.5t-74 -61.5t-45.5 -87.5t-15.5 -100.5t15 -100.5t44 -88.5t72.5 -63t99.5 -24q28 0 57 8t55.5 22.5t47.5 35t35 46.5q14 -27 35.5 -48.5t48 -36t56.5 -22t60 -7.5q31 0 61 7t59 19q-3 5 -8 15.5 t-10.5 21.5t-9.5 21t-4 15q-41 -19 -83 -19q-36 0 -64.5 13t-49 36t-32 53t-12.5 65h321q29 0 41.5 8t12.5 39q0 50 -16 96.5t-46 82.5t-73 57.5t-96 21.5q-60 0 -111.5 -31t-79.5 -84zM127 261q0 33 7 69.5t23.5 68t43.5 52t67 20.5q42 0 70.5 -17t46.5 -45t25.5 -63.5 t7.5 -71.5q0 -35 -6.5 -72t-22.5 -67t-44 -49.5t-71 -19.5q-40 0 -68 18t-45.5 46t-25.5 62.5t-8 68.5zM509 301q5 30 14 59.5t25.5 53.5t41 39t60.5 15q34 0 61.5 -14t46 -37t28.5 -53t10 -63h-287z" />
<glyph unicode="&#x178;" horiz-adv-x="506" d="M105 817q0 -23 16 -37.5t38 -14.5t37 16t15 37t-15.5 36.5t-36.5 15.5q-23 0 -38.5 -15t-15.5 -38zM297 817q0 -20 15 -36t36 -16q23 0 38.5 14.5t15.5 37.5t-15.5 38t-38.5 15q-22 0 -36.5 -16t-14.5 -37zM71 733l-72 -46q2 -3 2.5 -6.5t2.5 -6.5l205 -336v-302 q0 -19 12 -32t32 -13q19 0 31.5 13t12.5 32v302l198 325q4 6 6 11.5t2 13.5q0 17 -12.5 28t-29.5 11q-26 0 -39 -22l-169 -280z" />
<glyph unicode="&#x2c6;" horiz-adv-x="306" d="M152 702q-5 0 -11 -2.5t-11 -4.5l-106 -42q-26 -10 -26 -38q0 -17 11.5 -28t27.5 -11q9 0 25 5.5t33.5 12.5t33 14.5t24.5 10.5q9 -4 24.5 -11t32 -14t32 -12.5t24.5 -5.5q17 0 29.5 12t12.5 29q0 28 -25 38l-108 40q-5 2 -11.5 4.5t-11.5 2.5z" />
<glyph unicode="&#x2dc;" horiz-adv-x="289" d="M38 666q-17 0 -28.5 -11.5t-11.5 -28.5t12 -28t29 -11l210 -1q17 0 29.5 11.5t12.5 28.5t-12 28.5t-29 11.5h-212z" />
<glyph unicode="&#x2000;" horiz-adv-x="448" />
<glyph unicode="&#x2001;" horiz-adv-x="897" />
<glyph unicode="&#x2002;" horiz-adv-x="448" />
<glyph unicode="&#x2003;" horiz-adv-x="897" />
<glyph unicode="&#x2004;" horiz-adv-x="299" />
<glyph unicode="&#x2005;" horiz-adv-x="224" />
<glyph unicode="&#x2006;" horiz-adv-x="149" />
<glyph unicode="&#x2007;" horiz-adv-x="149" />
<glyph unicode="&#x2008;" horiz-adv-x="112" />
<glyph unicode="&#x2009;" horiz-adv-x="179" />
<glyph unicode="&#x200a;" horiz-adv-x="49" />
<glyph unicode="&#x2010;" horiz-adv-x="360" d="M44 328l1 -78h238q16 0 27 11.5t11 27.5t-11 27.5t-27 11.5h-239z" />
<glyph unicode="&#x2011;" horiz-adv-x="360" d="M44 328l1 -78h238q16 0 27 11.5t11 27.5t-11 27.5t-27 11.5h-239z" />
<glyph unicode="&#x2012;" horiz-adv-x="360" d="M44 328l1 -78h238q16 0 27 11.5t11 27.5t-11 27.5t-27 11.5h-239z" />
<glyph unicode="&#x2013;" horiz-adv-x="544" d="M62 371q-13 0 -22.5 -9.5t-9.5 -22.5t8.5 -23t22.5 -10h422q14 0 22 10t8 23q0 12 -8.5 22t-21.5 10h-421z" />
<glyph unicode="&#x2014;" horiz-adv-x="536" d="M47 195h440v85h-440v-85z" />
<glyph unicode="&#x2018;" horiz-adv-x="193" d="M117 738q-12 0 -23 -6.5t-16 -17.5q-5 -10 -16.5 -32.5t-23 -47t-20.5 -46t-9 -30.5q0 -18 13 -31t30 -13q12 0 22 6.5t15 17.5q5 10 16.5 32.5t23.5 47t21.5 46t9.5 30.5q0 18 -13 31t-30 13zM92 747l-86 -180q-4 -8 -4 -19q0 -17 12.5 -30t29.5 -13q12 0 22.5 6.5 t15.5 17.5l88 180z" />
<glyph unicode="&#x2019;" horiz-adv-x="193" d="M84 509l86 180q5 10 5 19q0 17 -12.5 30t-30.5 13q-12 0 -22.5 -6.5t-15.5 -17.5l-88 -180z" />
<glyph unicode="&#x201a;" horiz-adv-x="186" d="M109 88q-12 0 -22.5 -6t-15.5 -17q-5 -10 -16.5 -32.5t-23 -47t-20.5 -46.5t-9 -31q0 -17 12.5 -30t29.5 -13q12 0 22.5 6.5t15.5 17.5q5 10 16.5 32t23.5 46.5t21.5 46.5t9.5 31q0 18 -13.5 30.5t-30.5 12.5z" />
<glyph unicode="&#x201c;" horiz-adv-x="340" d="M92 747l-86 -180q-4 -8 -4 -19q0 -17 12.5 -30t29.5 -13q12 0 22.5 6.5t15.5 17.5l88 180zM242 747l-86 -180q-4 -8 -4 -19q0 -17 12.5 -30t29.5 -13q12 0 22.5 6.5t15.5 17.5l88 180z" />
<glyph unicode="&#x201d;" horiz-adv-x="340" d="M234 509l86 180q5 10 5 19q0 17 -12.5 30t-30.5 13q-12 0 -22.5 -6.5t-15.5 -17.5l-88 -180zM84 509l86 180q5 10 5 19q0 17 -12.5 30t-30.5 13q-12 0 -22.5 -6.5t-15.5 -17.5l-88 -180z" />
<glyph unicode="&#x201e;" horiz-adv-x="328" d="M92 107l-86 -180q-4 -8 -4 -19q0 -17 12.5 -30t29.5 -13q12 0 22.5 6.5t15.5 17.5l88 180zM232 107l-86 -180q-4 -8 -4 -19q0 -17 12.5 -30t29.5 -13q12 0 22.5 6.5t15.5 17.5l88 180z" />
<glyph unicode="&#x2022;" horiz-adv-x="248" d="M9 360q0 -18 7 -34t19 -28t28 -19t34 -7q37 0 62.5 25.5t25.5 62.5t-25.5 62.5t-62.5 25.5q-18 0 -34 -7t-28 -19t-19 -28t-7 -34z" />
<glyph unicode="&#x2026;" horiz-adv-x="572" d="M41 45q0 -23 15.5 -38.5t38.5 -15.5t38.5 15.5t15.5 38.5t-15.5 38.5t-38.5 15.5t-38.5 -15.5t-15.5 -38.5zM232 45q0 -23 15.5 -38.5t38.5 -15.5t38.5 15.5t15.5 38.5t-15.5 38.5t-38.5 15.5t-38.5 -15.5t-15.5 -38.5zM423 45q0 -23 15.5 -38.5t38.5 -15.5q22 0 38 16 t16 38t-16 38t-38 16q-23 0 -38.5 -15.5t-15.5 -38.5z" />
<glyph unicode="&#x202f;" horiz-adv-x="179" />
<glyph unicode="&#x2039;" horiz-adv-x="252" d="M179 472q-12 0 -22.5 -7t-16.5 -17l-89 -152q-4 -6 -8 -13t-4 -15t6 -18t10 -17l85 -147q6 -11 15.5 -18.5t22.5 -7.5t24 10.5t11 24.5q0 8 -3 14.5t-7 13.5l-87 143l88 143q8 13 8 27t-9 25t-24 11z" />
<glyph unicode="&#x203a;" horiz-adv-x="252" d="M213 262q0 8 -6 18.5l-10 17.5l-85 147q-6 10 -15.5 17.5t-21.5 7.5q-14 0 -24.5 -10t-10.5 -24q0 -8 2.5 -15t6.5 -14l87 -142l-88 -143q-8 -13 -8 -27q0 -15 9 -25.5t24 -10.5q12 0 22.5 7t16.5 17l89 151q4 6 8 13t4 15z" />
<glyph unicode="&#x205f;" horiz-adv-x="224" />
<glyph unicode="&#x2122;" horiz-adv-x="770" d="M73 720q-10 0 -17 -7t-7 -17t7 -17.5t17 -7.5h72v-319h53v319h73q10 0 17.5 7t7.5 17t-7 17.5t-17 7.5h-199zM287 347q0 3 -0.5 6.5t0.5 5.5l56 333q2 14 12.5 23.5t24.5 9.5q32 0 41 -31l81 -277l81 277q9 31 40 31q14 0 24.5 -9.5t12.5 -23.5l56 -333q1 -4 1 -12l-54 1 l-44 303l-90 -305h-54l-90 305l-45 -303z" />
<glyph unicode="&#xe000;" horiz-adv-x="540" d="M0 540h540v-540h-540v540z" />
</font>
</defs>
</svg>
